<svg xmlns="http://www.w3.org/2000/svg">
<defs>
<font
        id="FontID0"
        horiz-origin-x="0"
        horiz-origin-y="0"
        vert-origin-x="0"
        horiz-adv-x="0"
        vert-origin-y="0"
        vert-adv-y="0"
        font-weight="400,700"
      >
      <font-face
          id="font-face7"
          font-family="Arial"
      />
      <missing-glyph
          id="missing-glyph9"
        >
        <path
            id="path11"
            d="m0 0z"
        />
      </missing-glyph
      >
      <glyph
          id="glyph13"
          unicode=" "
          horiz-adv-x="277"
      />
      <glyph
          id="glyph15"
          unicode="3"
          horiz-adv-x="556"
        >
        <path
            id="path17"
            d="m37.684 190.01l132.63 15.997c4.3374-33.824 15.678-59.69 34.341-77.517 18.504-17.986 41.027-26.98 67.33-26.98 28.333 0 52.169 10.824 71.508 32.312 19.339 21.528 29.009 50.338 29.009 86.828 0 34.501-9.1524 61.838-27.855 82.014-18.464 20.334-41.146 30.322-67.807 30.322-17.509 0-38.52-3.3028-62.992-10.147l15.161 111.66c37.167-0.83566 65.499 7.1628 84.998 24.154 19.499 17.191 29.328 39.833 29.328 68.166 0 24.194-7.1628 43.335-21.488 57.66-14.365 14.365-33.506 21.528-57.183 21.528-23.478 0-43.494-8.1576-60.008-24.512-16.673-16.156-26.82-39.992-30.322-71.15l-126.5 21.329c8.8341 43.335 22.006 77.994 39.833 103.82 17.668 25.826 42.499 46.16 74.174 61.003 31.834 14.843 67.33 22.324 106.64 22.324 67.529 0 121.53-21.488 162.2-64.505 33.506-35.137 50.338-74.811 50.338-119.14 0-62.833-34.341-113.01-103.02-150.34 40.987-8.8341 73.657-28.492 98.329-59.172 24.512-30.482 36.848-67.489 36.848-110.82 0-62.833-23-116.36-68.842-160.68-45.842-44.17-102.98-66.335-171.35-66.335-64.823 0-118.46 18.663-161.16 55.83-42.658 37.366-67.33 86.033-74.134 146.36z"
        />
      </glyph
      >
      <glyph
          id="glyph19"
          unicode="2"
          horiz-adv-x="556"
        >
        <path
            id="path21"
            d="m505.85 127.5v-127.5h-481.02c5.3323 48.15 20.852 93.832 46.996 137.01 26.025 43.176 77.517 100.32 154.16 171.67 61.998 57.501 99.841 96.657 113.85 117.15 18.822 28.333 28.333 56.347 28.333 84.003 0 30.521-8.1576 53.999-24.672 70.513-16.474 16.474-39.156 24.672-68.166 24.672-28.651 0-51.333-8.6749-68.325-25.866-16.832-17.31-26.661-46.001-29.328-85.993l-136.69 13.689c8.1974 75.488 33.665 129.65 76.681 162.67 43.016 32.829 96.657 49.304 161.16 49.304 70.672 0 126.18-19.14 166.49-57.143 40.35-38.162 60.525-85.515 60.525-142.18 0-32.153-5.8496-62.833-17.35-92.002-11.5-29.168-29.845-59.65-54.835-91.484-16.673-21.17-46.677-51.691-89.813-91.365-43.335-39.634-70.872-66.136-82.372-79.148s-20.971-25.666-28.134-38.002h272.5z"
        />
      </glyph
      >
      <glyph
          id="glyph23"
          unicode="1"
          horiz-adv-x="556"
        >
        <path
            id="path25"
            d="m393.51 0h-137.17v517.15c-50.179-46.996-109.19-81.655-177.2-103.98v124.51c35.694 11.659 74.692 33.824 116.67 66.494 42.022 32.829 70.832 70.991 86.351 114.64h111.34v-718.82z"
        />
      </glyph
      >
      <glyph
          id="glyph27"
          unicode="I"
          horiz-adv-x="277"
        >
        <path
            id="path29"
            d="m68.325 0v715.84h144.53v-715.84h-144.53z"
        />
      </glyph
      >
      <glyph
          id="glyph31"
          unicode="H"
          horiz-adv-x="722"
        >
        <path
            id="path33"
            d="m79.984 0v715.84h94.867v-293.99h371.99v293.99h94.827v-715.84h-94.827v337.33h-371.99v-337.33h-94.867z"
        />
      </glyph
      >
      <glyph
          id="glyph35"
          unicode="M"
          horiz-adv-x="832"
        >
        <path
            id="path37"
            d="m74.174 0v715.84h142.66l169.32-506.84c15.678-47.155 27.179-82.491 34.182-106.01 8.1576 26.025 20.852 64.345 38.162 114.84l171.35 498.01h127.5v-715.84h-91.325v599.16l-208-599.16h-85.515l-207 609.35v-609.35h-91.325z"
        />
      </glyph
      >
      <glyph
          id="glyph39"
          unicode="E"
          horiz-adv-x="667"
        >
        <path
            id="path41"
            d="m79.148 0v715.84h517.51v-84.52h-422.84v-219.14h396.02v-84.003h-396.02v-243.69h439.52v-84.481h-534.18z"
        />
      </glyph
      >
      <glyph
          id="glyph43"
          unicode="O"
          horiz-adv-x="777"
        >
        <path
            id="path45"
            d="m48.349 348.67c0 118.82 31.834 211.82 95.663 278.99 63.828 67.171 146.16 100.84 247.16 100.84 66.017 0 125.67-15.838 178.67-47.314 53.004-31.675 93.514-75.686 121.33-132.19 27.815-56.307 41.663-120.49 41.663-192 0-72.662-14.485-137.64-43.812-194.83-29.367-57.342-70.832-100.68-124.51-130.16-53.84-29.487-111.66-44.17-173.86-44.17-67.489 0-127.66 16.196-180.66 48.826-53.164 32.511-93.315 77-120.65 133.35-27.338 56.188-40.987 115.84-40.987 178.67zm97.652-1.5121c0-86.311 23.16-154.16 69.518-203.82 46.478-49.662 104.66-74.493 174.65-74.493 71.309 0 130 24.99 176 75.169 46.001 50.139 69.16 121.33 69.16 213.49 0 58.178-9.9881 108.99-29.686 152.49-19.658 43.494-48.468 77.159-86.311 101.19-38.002 23.836-80.501 35.814-127.66 35.814-67.171 0-124.83-23-173.18-69.16-48.349-46.001-72.503-123-72.503-230.68z"
        />
      </glyph
      >
      <glyph
          id="glyph47"
          unicode="B"
          horiz-adv-x="666"
        >
        <path
            id="path49"
            d="m73.154 0v715.83h268.69c54.675 0 98.462-7.3536 131.51-21.679 33.139-14.468 58.972-36.816 77.643-66.995 18.671-29.988 28.173-61.503 28.173-94.499 0-30.513-8.3564-59.307-25.022-86.334-16.474-26.979-41.639-48.849-75.16-65.514 43.358-12.654 76.497-34.333 99.847-64.798 23.35-30.704 35.001-66.851 35.001-108.54 0-33.473-7.1626-64.655-21.345-93.496-14.182-28.794-31.659-50.998-52.478-66.66-20.867-15.662-47.035-27.314-78.359-35.336-31.325-7.9744-69.812-11.986-115.51-11.986h-272.99zm94.833 415h154.86c41.83 0 72.008 2.8173 90.345 8.3087 23.971 7.2104 42.164 19.005 54.293 35.67 12.176 16.665 18.336 37.532 18.336 62.506 0 23.684-5.6346 44.695-16.999 62.697-11.508 18.145-27.839 30.465-48.802 37.15-21.201 6.6851-57.54 9.9799-109.02 9.9799h-143.01v-216.31zm0-330.48h178.16c30.704 0 52.192 1.146 64.512 3.2948 21.822 4.0111 40.015 10.505 54.675 19.673 14.66 9.0249 26.645 22.347 36.148 39.681 9.3592 17.477 14.182 37.484 14.182 60.309 0 26.693-6.8284 49.852-20.485 69.669-13.657 19.673-32.662 33.521-57.015 41.543-24.162 7.8312-59.163 11.794-104.67 11.794h-165.5v-245.96z"
        />
      </glyph
      >
      <glyph
          id="glyph51"
          unicode="A"
          horiz-adv-x="666"
        >
        <path
            id="path53"
            d="m-1.4803 0l275 715.83h102l293-715.83h-108.01l-83.516 216.84h-299.3l-78.502-216.84h-100.66zm206.48 294h242.86l-74.874 198.17c-22.634 60.166-39.633 109.68-50.664 148.5-9.1682-45.984-21.965-91.491-38.63-136.85l-78.694-209.82z"
        />
      </glyph
      >
      <glyph
          id="glyph55"
          unicode="L"
          horiz-adv-x="556"
        >
        <path
            id="path57"
            d="m73.18 0v715.84h94.827v-631.36h352.49v-84.481h-447.31z"
        />
      </glyph
      >
      <glyph
          id="glyph59"
          unicode="N"
          horiz-adv-x="722"
        >
        <path
            id="path61"
            d="m76.164 0v715.84h97.175l376-562v562h90.808v-715.84h-97.135l-376 562.52v-562.52h-90.848z"
        />
      </glyph
      >
      <glyph
          id="glyph63"
          unicode="G"
          horiz-adv-x="777"
        >
        <path
            id="path65"
            d="m412.18 280.82v83.844l303.14 0.51731v-265.5c-46.478-37.167-94.469-65.022-143.97-83.844-49.503-18.663-100.36-28.014-152.37-28.014-70.314 0-134.3 15.002-191.64 45.165-57.501 30.004-100.84 73.697-130.16 130.52-29.328 56.984-44.011 120.65-44.011 191.01 0 69.638 14.684 134.66 43.852 194.99 28.969 60.486 70.991 105.33 125.67 134.66 54.636 29.168 117.67 43.852 188.98 43.852 51.691 0 98.488-8.3566 140.35-25.189 41.822-16.673 74.652-39.992 98.329-69.996 23.836-30.004 41.822-69.001 54.318-117.15l-85.476-23.518c-10.864 36.49-24.194 65.181-40.032 85.993-15.997 20.852-38.798 37.525-68.484 50.02-29.487 12.495-62.515 18.822-98.488 18.822-43.335 0-80.86-6.6454-112.34-19.817-31.675-13.172-57.024-30.521-76.522-52.01-19.3-21.488-34.302-45.006-45.165-70.832-18.146-44.17-27.338-92.161-27.338-144.01 0-63.828 11.023-117.15 33.028-160.17 22.006-42.976 53.999-74.811 95.981-95.663 42.022-20.812 86.51-31.317 133.66-31.317 41.186 0 81.178 7.9984 120.18 23.836 39.156 15.639 68.683 32.471 88.818 50.497v133.31h-210.31z"
        />
      </glyph
      >
      <glyph
          id="glyph67"
          unicode="C"
          horiz-adv-x="722"
        >
        <path
            id="path69"
            d="m587.82 251.02l94.827-23.995c-19.817-77.676-55.631-137.01-107.16-178.03-51.651-40.828-114.64-61.162-189.34-61.162-77.159 0-139.83 15.678-188.14 46.996-48.349 31.516-85.157 77-110.35 136.53-25.149 59.65-37.843 123.64-37.843 192 0 74.493 14.166 139.48 42.698 194.99 28.492 55.511 68.961 97.652 121.65 126.5 52.487 28.81 110.35 43.176 173.5 43.176 71.667 0 131.83-18.185 180.66-54.676 48.826-36.49 82.849-87.664 101.99-153.84l-93.156-22.006c-16.673 52.169-40.668 90.012-72.344 113.85-31.476 23.836-71.15 35.655-119.14 35.655-54.994 0-100.84-13.172-137.84-39.514-37.008-26.462-62.992-61.799-77.835-106.33-15.002-44.33-22.483-90.171-22.483-137.33 0-61.003 8.8341-114.01 26.502-159.49 17.827-45.324 45.324-79.347 82.809-101.83 37.525-22.523 77.994-33.665 121.69-33.665 53.004 0 97.811 15.32 134.66 45.842 36.809 30.641 61.679 76.164 74.652 136.33z"
        />
      </glyph
      >
      <glyph
          id="glyph71"
          unicode="R"
          horiz-adv-x="722"
        >
        <path
            id="path73"
            d="m78.671 0v715.84h317.31c63.868 0 112.34-6.4863 145.52-19.339 33.148-12.813 59.65-35.495 79.666-68.006 19.817-32.67 29.646-68.643 29.646-108 0-50.816-16.315-93.474-49.304-128.33-32.829-34.819-83.685-56.984-152.33-66.494 25.149-12.018 44.13-23.836 57.143-35.655 27.656-25.348 53.84-57.183 78.671-95.185l124.51-194.83h-119.18l-94.668 148.98c-27.656 42.857-50.497 75.846-68.484 98.528-17.827 22.801-33.864 38.838-48.03 47.831-14.166 9.1524-28.492 15.48-43.136 19.14-10.864 2.1886-28.333 3.3426-52.845 3.3426h-109.83v-317.83h-94.668zm94.668 399.84h203.66c43.176 0 77.159 4.4966 101.51 13.49 24.473 8.9932 42.976 23.319 55.67 43.016 12.654 19.658 18.981 40.987 18.981 64.146 0 33.824-12.177 61.679-36.848 83.526-24.473 21.807-63.311 32.63-116.47 32.63h-226.5v-236.81z"
        />
      </glyph
      >
      <glyph
          id="glyph75"
          unicode="T"
          horiz-adv-x="610"
        >
        <path
            id="path77"
            d="m259.34 0v631.32h-235.84v84.519h567.33v-84.519h-236.84v-631.32h-94.642z"
        />
      </glyph
      >
      <glyph
          id="glyph79"
          unicode="P"
          horiz-adv-x="667"
        >
        <path
            id="path81"
            d="m77.159 0v715.84h270c47.513 0 83.844-2.3478 108.83-6.8444 35.177-5.8098 64.664-16.992 88.5-33.506 23.677-16.315 42.857-39.475 57.342-69.001 14.485-29.646 21.687-62.157 21.687-97.652 0-60.844-19.339-112.5-58.018-154.68-38.838-41.982-108.83-63.152-209.99-63.152h-183.68v-291.01h-94.668zm94.668 375.49h185.16c61.202 0 104.7 11.341 130.36 34.182 25.666 22.841 38.48 54.835 38.48 96.18 0 29.964-7.4811 55.631-22.642 77-15.201 21.329-35.018 35.336-59.849 42.141-15.997 4.1783-45.324 6.3271-88.341 6.3271h-183.17v-255.83z"
        />
      </glyph
      >
      <glyph
          id="glyph83"
          unicode="Q"
          horiz-adv-x="777"
        >
        <path
            id="path85"
            d="m619.66 76.681c43.852-30.362 84.52-52.368 121.53-66.335l-27.855-66.017c-51.333 18.504-102.67 47.831-153.84 87.823-53.004-29.487-111.5-44.33-175.65-44.33-64.863 0-123.52 15.678-176.36 46.836-52.646 31.357-93.315 75.169-121.81 131.83-28.492 56.665-42.658 120.49-42.658 191.32 0 70.672 14.326 135.02 42.976 193 28.691 57.859 69.359 102.03 122.32 132.35 52.845 30.163 112.02 45.324 177.36 45.324 66.176 0 125.67-15.639 178.83-47.155 53.004-31.357 93.514-75.328 121.33-131.83 27.815-56.506 41.663-120.18 41.663-191.17 0-58.854-8.8341-111.82-26.82-158.85-17.827-46.996-44.847-87.982-81.019-122.8zm-208.48 121.17c54.636-15.36 99.642-38.201 135.14-68.524 55.67 50.856 83.526 127.18 83.526 229.01 0 57.978-9.8289 108.68-29.526 152.01-19.658 43.136-48.468 76.801-86.311 100.84-38.002 23.836-80.501 35.814-127.86 35.814-70.474 0-129.17-24.154-175.65-72.503-46.677-48.309-69.837-120.49-69.837-216.67 0-92.996 23-164.5 69.001-214.33 46.16-49.662 105.01-74.652 176.48-74.652 34.023 0 65.858 6.3271 95.862 18.981-29.686 19.339-61.003 33.028-93.832 41.027l23 69.001z"
        />
      </glyph
      >
      <glyph
          id="glyph87"
          unicode="S"
          horiz-adv-x="667"
        >
        <path
            id="path89"
            d="m45.006 230l89.336 7.8392c4.1783-35.854 14.007-65.181 29.487-88.182 15.519-23 39.514-41.504 71.986-55.67 32.511-14.166 69.2-21.17 109.87-21.17 36.132 0 67.967 5.3323 95.663 15.997 27.656 10.864 48.309 25.507 61.838 44.17 13.49 18.862 20.334 39.196 20.334 61.361 0 22.483-6.5261 41.982-19.698 58.814-12.972 16.832-34.501 30.84-64.306 42.181-19.339 7.4811-61.679 19.14-127.5 34.978-65.698 15.838-111.86 30.68-138.2 44.688-34.142 17.827-59.65 40.151-76.482 66.653-16.673 26.502-24.99 56.188-24.99 89.176 0 36.013 10.147 69.837 30.641 101.15 20.533 31.516 50.497 55.352 89.853 71.667 39.514 16.156 83.168 24.353 131.32 24.353 53.164 0 99.841-8.5157 140.51-25.666 40.509-17.031 71.667-42.181 93.514-75.328 21.647-33.187 33.506-70.872 35.137-112.85l-90.808-6.8444c-5.0139 45.165-21.488 79.507-49.662 102.51-28.174 23.16-69.678 34.66-124.67 34.66-57.342 0-99.005-10.505-125.35-31.476-26.144-21.011-39.316-46.359-39.316-75.846 0-25.826 9.3116-46.996 27.815-63.51 18.345-16.673 65.858-33.665 142.86-50.975 77-17.509 129.8-32.67 158.5-45.682 41.663-19.339 72.503-43.653 92.32-72.98 19.817-29.526 29.686-63.51 29.686-101.87 0-38.162-10.864-73.975-32.67-107.64-21.846-33.665-53.164-59.849-94.031-78.671-40.828-18.663-86.828-28.014-137.8-28.014-64.863 0-119.18 9.3514-162.83 28.333-43.852 18.862-78.193 47.195-103.18 85.197-24.831 37.803-38.002 80.82-39.156 128.65z"
        />
      </glyph
      >
      <glyph
          id="glyph91"
          unicode="f"
          horiz-adv-x="277"
        >
        <path
            id="path93"
            d="m86.828 0v450.18h-77.477v68.325h77.477v55.153c0 34.859 3.1834 60.844 9.3514 77.676 8.4759 22.841 23.319 41.345 44.648 55.511s51.174 21.17 89.654 21.17c24.672 0 52.01-2.8651 82.014-8.8341l-13.172-76.681c-18.146 3.3426-35.495 5.0139-51.811 5.0139-26.661 0-45.523-5.6904-56.506-17.191-11.182-11.341-16.673-32.67-16.673-63.987v-47.831h101v-68.325h-101v-450.18h-87.505z"
        />
      </glyph
      >
      <glyph
          id="glyph95"
          unicode="c"
          horiz-adv-x="500"
        >
        <path
            id="path97"
            d="m404.34 190.01l86.311-11.341c-9.3116-59.491-33.466-106.17-72.463-139.83-38.838-33.665-86.669-50.497-143.34-50.497-70.832 0-128.01 23.16-171.03 69.479-43.136 46.359-64.823 112.85-64.823 199.52 0 55.989 9.3514 104.97 27.855 147 18.663 41.982 46.797 73.498 84.799 94.509 37.843 20.971 79.188 31.476 123.68 31.476 56.347 0 102.51-14.326 138.16-42.817 35.854-28.492 58.854-68.842 69.001-121.33l-85.476-13.172c-8.1974 34.819-22.523 61.003-43.176 78.671-20.692 17.509-45.682 26.343-75.01 26.343-44.33 0-80.342-15.838-108-47.672-27.656-31.675-41.504-81.854-41.504-150.5 0-69.678 13.331-120.33 40.191-152.01 26.661-31.516 61.48-47.354 104.5-47.354 34.501 0 63.152 10.664 86.311 31.834 23.16 21.17 37.843 53.681 44.011 97.692z"
        />
      </glyph
      >
      <glyph
          id="glyph99"
          unicode="b"
          horiz-adv-x="556"
        >
        <path
            id="path101"
            d="m147 0h-81.496v715.84h87.823v-255.35c37.167 46.518 84.52 69.837 142.02 69.837 31.994 0 62.157-6.4863 90.649-19.339 28.492-12.813 51.85-30.999 70.354-54.158 18.305-23.319 32.829-51.333 43.136-84.322 10.505-32.829 15.678-68.006 15.678-105.33 0-89.017-22.006-157.66-65.977-206.17-43.852-48.508-96.697-72.662-158.18-72.662-61.162 0-109.19 25.507-144.01 76.642v-64.982zm-0.99483 263.15c0-62.157 8.5157-107 25.348-134.66 27.656-45.324 65.141-68.006 112.34-68.006 38.48 0 71.667 16.673 99.642 50.179 28.014 33.347 42.022 83.008 42.022 149.18 0 67.648-13.53 117.67-40.35 149.82-26.82 32.153-59.332 48.349-97.334 48.349-38.48 0-71.667-16.673-99.682-50.02-27.974-33.347-41.982-81.655-41.982-144.85z"
        />
      </glyph
      >
      <glyph
          id="glyph103"
          unicode="g"
          horiz-adv-x="556"
        >
        <path
            id="path105"
            d="m49.821-43.016l85.515-12.654c3.5018-26.343 13.49-45.484 29.646-57.66 21.846-16.156 51.691-24.353 89.336-24.353 40.868 0 72.185 8.1974 94.349 24.353 22.165 16.315 37.008 39.156 44.847 68.325 4.6558 17.986 6.6454 55.511 6.3271 112.85-38.36-45.165-86.192-67.847-143.49-67.847-71.349 0-126.5 25.666-165.5 77.159-38.997 51.333-58.695 113.17-58.695 185 0 49.503 9.033 95.185 26.86 137.01 17.986 41.822 43.971 74.174 77.994 97.016 33.983 22.642 73.975 34.142 119.82 34.142 61.162 0 111.66-24.831 151.33-74.334v62.515h81.178v-448.19c0-80.661-8.3168-137.96-24.672-171.67-16.514-33.665-42.499-60.326-78.154-79.825-35.694-19.499-79.507-29.328-131.68-29.328-61.838 0-111.82 14.007-149.82 41.822-38.162 27.855-56.506 69.678-55.193 125.67zm72.662 311.5c0-67.967 13.53-117.67 40.668-148.83 27.02-31.317 60.844-46.836 101.51-46.836 40.35 0 74.174 15.519 101.51 46.518 27.338 31.158 40.987 79.825 40.987 146.32 0 63.51-14.007 111.34-42.181 143.49-28.134 32.193-62.157 48.349-101.83 48.349-38.997 0-72.145-15.838-99.642-47.672-27.338-31.675-41.027-78.83-41.027-141.34z"
        />
      </glyph
      >
      <glyph
          id="glyph107"
          unicode="n"
          horiz-adv-x="556"
        >
        <path
            id="path109"
            d="m66.017 0v518.5h78.989v-73.657c38.162 56.984 93.156 85.476 164.98 85.476 31.357 0 60.008-5.6506 86.192-16.832 26.303-11.341 45.802-25.985 58.814-44.33 13.172-18.146 22.165-39.833 27.497-64.823 3.1834-16.355 4.8548-44.847 4.8548-85.515v-318.82h-88.022v315.52c0 35.655-3.3426 62.475-10.147 80.302-6.8444 17.668-19.021 31.834-36.331 42.34-17.509 10.664-37.843 15.997-61.361 15.997-37.485 0-69.638-11.978-96.976-35.655-27.179-23.836-40.668-68.842-40.668-135.34v-283.17h-87.823z"
        />
      </glyph
      >
      <glyph
          id="glyph111"
          unicode="i"
          horiz-adv-x="222"
        >
        <path
            id="path113"
            d="m66.335 614.68v101.15h87.982v-101.15h-87.982zm0-614.68v518.5h87.982v-518.5h-87.982z"
        />
      </glyph
      >
      <glyph
          id="glyph115"
          unicode="m"
          horiz-adv-x="832"
        >
        <path
            id="path117"
            d="m66.017 0v518.5h78.472v-72.662c16.355 25.308 38.002 45.842 65.022 61.162 26.98 15.48 57.819 23.319 92.32 23.319 38.321 0 69.837-7.9984 94.349-23.995 24.672-15.997 41.982-38.162 51.97-66.813 41.186 60.486 94.509 90.808 160.17 90.808 51.532 0 91.007-14.326 118.7-42.817 27.656-28.492 41.464-72.344 41.464-131.52v-355.99h-87.306v326.66c0 35.177-2.8253 60.486-8.5157 76.005-5.8098 15.32-16.156 27.815-30.999 37.326-15.002 9.3514-32.67 14.166-52.845 14.166-36.49 0-66.653-12.177-90.808-36.49-23.995-24.154-36.172-62.992-36.172-116.32v-301.35h-87.823v336.85c0 39.156-7.1628 68.484-21.528 87.982-14.326 19.499-37.644 29.328-70.314 29.328-24.672 0-47.513-6.4863-68.524-19.658-20.971-13.012-36.331-31.994-45.643-56.984-9.5106-25.189-14.166-61.361-14.166-108.52v-269h-87.823z"
        />
      </glyph
      >
      <glyph
          id="glyph119"
          unicode="o"
          horiz-adv-x="556"
        >
        <path
            id="path121"
            d="m33.148 259.33c0 96.021 26.701 167.17 80.183 213.33 44.489 38.321 98.846 57.66 162.99 57.66 71.349 0 129.69-23.319 174.85-70.155 45.324-46.677 67.807-111.18 67.807-193.51 0-66.813-9.9881-119.34-29.964-157.5-20.016-38.321-49.184-67.967-87.346-89.136-38.321-21.17-80.024-31.675-125.35-31.675-72.503 0-131.16 23.16-176 69.837-44.807 46.478-67.171 113.49-67.171 201.15zm90.37 0c0-66.494 14.485-116.16 43.494-149.18 28.969-33.148 65.499-49.662 109.31-49.662 43.693 0 80.024 16.673 108.99 49.861 28.85 33.148 43.335 83.804 43.335 151.81 0 64.186-14.485 112.85-43.653 145.84-29.168 32.988-65.34 49.503-108.68 49.503-43.812 0-80.342-16.514-109.31-49.343-29.009-32.829-43.494-82.491-43.494-148.83z"
        />
      </glyph
      >
      <glyph
          id="glyph123"
          unicode="e"
          horiz-adv-x="556"
        >
        <path
            id="path125"
            d="m420.85 167.01l90.808-11.182c-14.326-53.164-40.828-94.349-79.507-123.68-38.838-29.168-88.301-43.812-148.47-43.812-75.846 0-136.01 23.319-180.34 69.996-44.528 46.677-66.693 112.18-66.693 196.5 0 87.346 22.523 154.99 67.37 203.18 44.966 48.15 103.14 72.304 174.81 72.304 69.32 0 125.98-23.637 169.84-70.832 44.011-47.155 66.017-113.65 66.017-199.16 0-5.3323-0.19896-13.172-0.51731-23.478h-386.67c3.1834-57.024 19.339-100.68 48.349-130.84 28.969-30.322 64.982-45.523 108.32-45.523 32.153 0 59.69 8.5157 82.491 25.507 22.841 16.832 40.828 43.852 54.198 81.019zm-288.5 142.14h289.5c-3.8599 43.534-15.002 76.363-33.187 98.01-27.974 33.824-64.345 50.856-108.83 50.856-40.31 0-74.334-13.53-101.83-40.509-27.497-27.02-42.658-63.191-45.643-108.36z"
        />
      </glyph
      >
      <glyph
          id="glyph127"
          unicode="d"
          horiz-adv-x="556"
        >
        <path
            id="path129"
            d="m402.35 0v65.499c-32.829-51.492-81.178-77.159-145.01-77.159-41.345 0-79.347 11.341-114.01 34.142-34.66 22.682-61.52 54.516-80.661 95.503-19.021 40.828-28.492 87.664-28.492 140.83 0 51.691 8.6351 98.687 25.826 140.87 17.31 42.141 43.176 74.493 77.676 96.817 34.501 22.483 73.14 33.824 115.8 33.824 31.198 0 59.013-6.6454 83.366-19.817 24.473-13.172 44.33-30.322 59.65-51.492v256.82h87.346v-715.84h-81.496zm-277.84 258.81c0-66.494 14.007-116.16 41.982-148.98 28.014-32.829 61.003-49.343 99.164-49.343 38.36 0 70.991 15.838 97.851 47.195 26.82 31.317 40.31 79.308 40.31 143.81 0 70.991-13.649 123-40.987 156.19-27.338 33.307-61.003 49.821-101.15 49.821-38.997 0-71.667-15.997-97.851-47.831-26.144-31.834-39.316-82.173-39.316-150.86z"
        />
      </glyph
      >
      <glyph
          id="glyph131"
          unicode="l"
          horiz-adv-x="222"
        >
        <path
            id="path133"
            d="m63.987 0v715.84h87.863v-715.84h-87.863z"
        />
      </glyph
      >
      <glyph
          id="glyph135"
          unicode="a"
          horiz-adv-x="556"
        >
        <path
            id="path137"
            d="m404.34 63.987c-32.67-27.656-63.987-47.155-93.991-58.655-30.163-11.341-62.515-16.992-97.016-16.992-56.984 0-100.68 13.808-131.32 41.663-30.521 27.815-45.842 63.51-45.842 106.64 0 25.507 5.6506 48.667 17.31 69.678 11.5 21.011 26.701 37.843 45.364 50.497 18.822 12.694 39.833 22.324 63.311 28.85 17.191 4.4966 43.176 8.9932 77.994 13.172 71.031 8.4759 123.36 18.504 156.86 30.322 0.31834 12.018 0.47752 19.658 0.47752 22.841 0 35.814-8.3168 61.162-24.99 75.647-22.324 20.016-55.83 29.845-100 29.845-41.345 0-71.826-7.1628-91.683-21.687-19.658-14.485-34.142-40.151-43.653-77l-85.834 11.858c7.8392 36.649 20.653 66.494 38.52 88.977 17.827 22.682 43.812 40.191 77.636 52.368 33.864 12.137 73.02 18.305 117.67 18.305 44.33 0 80.183-5.3323 107.84-15.639 27.656-10.505 47.99-23.518 61.162-39.355 13.012-15.838 22.006-35.655 27.338-59.809 2.8253-15.002 4.3374-42.022 4.3374-81.019v-117.15c0-81.854 1.8305-133.51 5.6506-155.03 3.7008-21.647 11.182-42.499 22.165-62.316h-91.803c-8.9932 18.185-15.002 39.514-17.509 63.987zm-7.3219 196.34c-32.033-13.172-79.865-24.154-143.53-33.307-36.132-5.1731-61.799-11.023-76.642-17.509-15.002-6.5261-26.661-15.997-34.66-28.691-8.1974-12.495-12.336-26.303-12.336-41.663 0-23.478 8.9932-42.976 26.661-58.655 17.668-15.519 43.653-23.319 77.835-23.319 33.824 0 63.987 7.3219 90.33 22.165 26.343 14.803 45.842 35.137 58.178 60.804 9.4708 19.857 14.166 49.184 14.166 87.863v32.312z"
        />
      </glyph
      >
      <glyph
          id="glyph139"
          unicode="s"
          horiz-adv-x="500"
        >
        <path
            id="path141"
            d="m30.84 154.84l86.828 13.649c4.815-34.819 18.504-61.48 40.828-80.143 22.165-18.504 53.323-27.855 93.514-27.855 40.31 0 70.314 8.3566 89.813 24.672 19.499 16.514 29.328 35.854 29.328 57.859 0 19.976-8.6351 35.495-25.985 46.996-12.018 7.8392-41.982 17.668-89.813 29.646-64.345 16.355-109.19 30.322-134.02 42.34-24.831 11.818-43.812 28.333-56.665 49.343-12.813 21.011-19.339 44.17-19.339 69.479 0 23.199 5.3323 44.528 15.997 64.186 10.505 19.817 25.03 36.172 43.176 49.144 13.689 10.028 32.352 18.703 55.83 25.666 23.677 7.0036 49.025 10.505 76.005 10.505 40.668 0 76.323-6.0088 107.16-17.668 30.84-11.659 53.522-27.497 68.166-47.473 14.684-20.175 24.672-46.836 30.163-80.342l-85.834-11.858c-3.9793 26.701-15.32 47.513-33.983 62.515s-45.165 22.523-79.347 22.523c-40.31 0-69.16-6.6852-86.311-20.016-17.35-13.331-26.025-29.009-26.025-46.836 0-11.5 3.661-21.647 10.864-30.84 7.1628-9.5106 18.305-17.151 33.665-23.478 8.8341-3.1834 34.66-10.664 77.636-22.364 62.197-16.634 105.53-30.163 130-40.828 24.672-10.505 44.011-25.985 58.018-46.16s20.971-45.165 20.971-75.169c0-29.328-8.6351-56.824-25.666-82.809-17.151-25.866-41.822-45.842-73.975-60.008s-68.683-21.17-109.35-21.17c-67.489 0-118.82 14.007-154.16 41.982-35.336 28.014-57.819 69.518-67.489 124.51z"
        />
      </glyph
      >
      <glyph
          id="glyph143"
          unicode="v"
          horiz-adv-x="500"
        >
        <path
            id="path145"
            d="m209.99 0l-197.33 518.5h92.837l111.34-310.5c12.018-33.506 23-68.325 33.148-104.5 7.8392 27.338 18.703 60.167 32.67 98.647l115.36 316.36h90.33l-196.34-518.5h-82.014z"
        />
      </glyph
      >
      <glyph
          id="glyph147"
          unicode="x"
          horiz-adv-x="500"
        >
        <path
            id="path149"
            d="m7.3219 0l189.5 269.52-175.33 248.98h109.83l79.666-121.49c14.843-23.199 27.02-42.499 36.013-58.178 14.326 21.488 27.497 40.509 39.674 57.143l87.346 122.52h104.97l-179.15-244.17 192.84-274.33h-107.84l-106.49 161.16-28.372 43.494-136.13-204.66h-106.53z"
        />
      </glyph
      >
      <glyph
          id="glyph151"
          unicode="r"
          horiz-adv-x="332"
        >
        <path
            id="path153"
            d="m64.982 0v518.5h79.029v-78.512c20.175 36.689 38.838 61.003 55.989 72.662 16.992 11.659 35.814 17.668 56.347 17.668 29.646 0 59.65-9.4708 90.33-28.333l-30.362-81.655c-21.329 12.813-42.817 19.18-64.306 19.18-19.339 0-36.49-5.8496-51.85-17.35-15.32-11.659-26.144-27.656-32.67-48.15-9.8289-31.198-14.644-65.34-14.644-102.51v-271.51h-87.863z"
        />
      </glyph
      >
      <glyph
          id="glyph155"
          unicode="t"
          horiz-adv-x="277"
        >
        <path
            id="path157"
            d="m257.82 78.671l12.694-77.676c-24.672-5.1731-46.836-7.8392-66.335-7.8392-31.994 0-56.665 5.0139-74.334 15.161-17.509 10.028-29.845 23.358-37.008 39.833-7.1628 16.355-10.824 51.015-10.824 103.7v298.33h-64.505v68.325h64.505v128.49l87.505 52.686v-181.18h88.301v-68.325h-88.301v-303.18c0-25.149 1.4723-41.146 4.4966-48.349 3.1436-7.1628 8.1576-12.813 15.161-17.151 7.0036-4.1783 16.992-6.3271 30.004-6.3271 9.8289 0 22.642 1.154 38.639 3.5018z"
        />
      </glyph
      >
      <glyph
          id="glyph159"
          unicode="u"
          horiz-adv-x="556"
        >
        <path
            id="path161"
            d="m405.85 0v76.164c-40.509-58.655-95.344-87.823-164.66-87.823-30.521 0-59.172 5.8098-85.674 17.509-26.502 11.659-46.16 26.502-59.013 44.13-13.012 17.867-22.006 39.514-27.179 65.181-3.5018 17.35-5.3323 44.688-5.3323 82.173v321.17h87.863v-287.5c0-46.001 1.8305-76.84 5.3323-92.837 5.6506-23.16 17.31-41.146 35.137-54.477 18.026-13.172 40.191-19.698 66.494-19.698 26.343 0 51.015 6.6852 74.174 20.175 23.16 13.49 39.514 31.994 49.025 55.153 9.6697 23.358 14.485 57.183 14.485 101.35v277.84h87.823v-518.5h-78.472z"
        />
      </glyph
      >
      <glyph
          id="glyph163"
          unicode="p"
          horiz-adv-x="556"
        >
        <path
            id="path165"
            d="m66.017-198.65v717.15h79.984v-67.33c18.822 26.343 40.151 46.16 63.987 59.332 23.677 13.172 52.527 19.817 86.351 19.817 44.33 0 83.327-11.5 117.15-34.142 34.023-22.841 59.491-54.994 76.681-96.498 17.31-41.504 25.985-87.028 25.985-136.53 0-53.004-9.4708-100.84-28.651-143.34-19.021-42.499-46.677-74.97-83.008-97.652-36.331-22.483-74.493-33.824-114.48-33.824-29.328 0-55.511 6.1679-78.83 18.504-23.358 12.336-42.34 27.974-57.342 46.836v-252.33h-87.823zm79.467 454.99c0-66.693 13.53-116 40.509-148.03 27.02-31.834 59.849-47.831 98.17-47.831 38.997 0 72.503 16.514 100.32 49.662 27.855 33.028 41.862 84.202 41.862 153.52 0 66.176-13.689 115.48-40.828 148.51-27.179 32.829-59.69 49.304-97.334 49.304-37.525 0-70.672-17.469-99.522-52.487-28.81-34.978-43.176-85.993-43.176-152.65z"
        />
      </glyph
      >
      <glyph
          id="glyph167"
          unicode="í"
          horiz-adv-x="277"
        >
        <path
            id="path169"
            d="m96.657 0v518.5h87.823v-518.5h-87.823zm-4.4966 583.01l65.022 136.65h115.16l-107.36-136.65h-72.821z"
        />
      </glyph
      >
      <glyph
          id="glyph171"
          unicode="ó"
          horiz-adv-x="556"
        >
        <path
            id="path173"
            d="m33.148 259.33c0 96.021 26.701 167.17 80.183 213.33 44.489 38.321 98.846 57.66 162.99 57.66 71.349 0 129.69-23.319 174.85-70.155 45.324-46.677 67.807-111.18 67.807-193.51 0-66.813-9.9881-119.34-29.964-157.5-20.016-38.321-49.184-67.967-87.346-89.136-38.321-21.17-80.024-31.675-125.35-31.675-72.503 0-131.16 23.16-176 69.837-44.807 46.478-67.171 113.49-67.171 201.15zm90.37 0c0-66.494 14.485-116.16 43.494-149.18 28.969-33.148 65.499-49.662 109.31-49.662 43.693 0 80.024 16.673 108.99 49.861 28.85 33.148 43.335 83.804 43.335 151.81 0 64.186-14.485 112.85-43.653 145.84-29.168 32.988-65.34 49.503-108.68 49.503-43.812 0-80.342-16.514-109.31-49.343-29.009-32.829-43.494-82.491-43.494-148.83zm103.98 323.68l65.022 136.65h115.16l-107.36-136.65h-72.821z"
        />
      </glyph
      >
      <glyph
          id="glyph175"
          unicode="ñ"
          horiz-adv-x="556"
        >
        <path
            id="path177"
            d="m66.017 0v518.5h78.989v-73.657c38.162 56.984 93.156 85.476 164.98 85.476 31.357 0 60.008-5.6506 86.192-16.832 26.303-11.341 45.802-25.985 58.814-44.33 13.172-18.146 22.165-39.833 27.497-64.823 3.1834-16.355 4.8548-44.847 4.8548-85.515v-318.82h-88.022v315.52c0 35.655-3.3426 62.475-10.147 80.302-6.8444 17.668-19.021 31.834-36.331 42.34-17.509 10.664-37.843 15.997-61.361 15.997-37.485 0-69.638-11.978-96.976-35.655-27.179-23.836-40.668-68.842-40.668-135.34v-283.17h-87.823zm61.998 595.18c-0.35814 33.824 8.8341 60.963 27.815 81.138 18.504 20.175 42.181 30.163 71.19 30.163 20.135 0 47.632-8.6351 82.491-26.303 19.339-9.8687 34.501-14.684 46.001-14.684 10.306 0 18.305 2.8253 23.836 8.5157 5.6506 5.8098 9.4708 16.992 11.818 33.983h63.351c-0.83566-37.167-10.346-64.982-28.014-83.486s-40.35-27.855-67.688-27.855c-20.493 0-47.473 9.1922-80.979 27.338-21.846 11.659-37.843 17.668-47.831 17.668-11.182 0-20.016-3.9793-26.82-11.818-7.2026-7.8392-10.664-19.339-10.346-34.66h-64.823z"
        />
      </glyph
      >
    </font
    >
  </defs
  >
  <g
      id="g4547"
      transform="translate(41161 -11883)"
    >
    <path
        id="path2244"
        style="fill-rule:evenodd;fill:#ff0000"
        d="m-28175 13488c-676.52 700.55 116.57 1739.6-221.69 1821.3 0 0-419.9-665.52-898.12-595.47 745.4 994.86 313.04 1618.4 314.94 1611.3-466.56-583.79-1067.1-596.33-933.09-502.12 559.76 393.65 384.87 1447.9 384.87 1447.9s-594.87-513.76-874.81-245.22c760.41 386.2 431.63 828.94 419.97 1366-25.655 1066.6 641.84 1545.2 762.62 1622.9h-319.47v245.22h3021.1v-245.22h-373.69c240.26-103.59 1154.3-571.13 1225.1-1716.3 0 0 22.904-666.59-198.31-934.12-58.321 245.19-210 268.5-210 268.5-93.313 11.676 128.34-550.29 128.34-793.84 0-560.56-396.59-770.66-396.59-770.66s93.391 618.76-256.53 817.25c-70.233-145.42 202.47-1738.2-793.19-2054.9 256.61 525.41 198.31 723.94 198.31 723.94s-25.063 265.85-35 198.5c-76.234-516.59-536.63-1015.8-536.63-1015.8s-255.69-221.78-408.16-1249.2z"
    />
    <path
        id="path4518"
        style="fill:#ffff00"
        d="m-27487 17353s-268.26 326.86-431.56 1120.8c-270.85-39.579-408.19-537.06-408.19-537.06-256.61 280.22 35 1214.3 35 1214.3s-384.98-0.07-606.59-1039.2c-670.49 1184.3 559.9 1949.9 793.19 1809.8 1288.9-342.2 1399.6-1436.1 1399.6-1436.1s-152.82 246.44-454.84 315.25c279.94-280.22 321.74-937.21 244.97-852.41-61.262 67.669-338.31 525.41-571.59 595.47 0 0 139.97-992.32 0-1190.8z"
    />
  </g
  >
  <g
      id="g4492"
      transform="matrix(.73078 0 0 .73078 30672 -7017.2)"
    >
    <path
        id="flame-0"
        style="fill:#ff0000"
        d="m-39689 10856c216.38 185.26 358.72 443.54 391.58 711.08 32.862 267.55-44.048 541.76-211.38 755.89-158.21 202.46-387.47 345.85-592.25 508.47-102.39 81.313-199.85 168.34-278.59 269.82-78.734 101.48-138.3 218.09-158.78 342.88-26.745 163.02 14.47 331.34 72.082 489.97 57.612 158.62 131.62 312.59 176.31 474.38 33.424 120.99 49.834 248.93 17.534 368.2-16.15 59.636-44.337 116.18-85.72 163.65-41.384 47.473-96.221 85.87-158.78 106.18-97.546 31.664-212.71 17.317-300.99-37.015-88.279-54.333-147.95-147.93-155.85-244.5-77.646 134.33-107.27 292.48-84.746 446.13 35.719 243.68 195.06 457.56 301.97 684.78 53.454 113.61 94.455 234.03 98.383 356.52 3.926 122.49-31.871 248.49-117.86 338.98-70.918 74.626-173.98 121.56-282.49 129.55-108.51 7.996-221.22-23.745-308.79-86.693-87.567-62.95-149.12-156.25-168.52-256.19-19.392-99.937 3.098-205.31 62.342-288.33-162.8 128.14-293.22 291.38-378.92 473.41-102.84 218.43-140.47 464.07-108.12 704.27 32.343 240.2 134.54 474.07 293.2 670.17-17.225 209.44-12.575 421.18 12.663 631.21 64.947 540.47 277.06 1076.5 653.61 1503 376.56 426.55 924.42 735.28 1508.9 792.91 384.69 37.931 774.86-32.166 1117.3-186.05 342.42-153.88 637.7-390.13 864.02-672.12 326.67-407.05 511.08-912.61 521.14-1427 10.055-514.43-154.46-1035.9-464.64-1472.8 17.794 96.532-16.132 199.41-88.642 267.88-72.513 68.457-181.77 101.26-286.38 86.693-93.826-13.066-181.75-62.803-242.55-131.5-60.793-68.697-95.528-155.37-105.2-242.55-9.671-87.187 4.885-174.66 36.042-256.19 31.154-81.53 78.798-157.35 133.45-226.96 109.3-139.21 247.71-255.39 370.15-384.76s231.61-278.52 262.03-450.03c30.061-169.48-22.818-351.95-141.24-488.99 3.179 70.079-14.594 140.15-50.653 200.66-36.057 60.515-89.775 111.29-154.88 145.14-65.104 33.852-141.46 51.08-217.22 48.705-75.757-2.375-151.24-24.41-216.25-62.342-109.71-64.016-185.28-172.06-222.09-286.38-36.813-114.32-37.444-234.57-23.378-351.65 28.133-234.14 115.24-463.33 90.59-699.4-23.069-220.98-149.34-434.13-339.96-573.74 50.326 64.18 79.037 142.06 80.85 220.14 1.808 78.086-22.765 156-70.135 219.17-47.369 63.173-116.72 111.43-195.79 136.37-79.07 24.946-167.78 26.387-249.37 3.897-77.65-21.403-148.62-63.835-204.56-118.84-55.941-55.005-97.317-122.61-122.74-193.84-50.836-142.47-38.158-297.66 8.767-438.34 93.847-281.35 315.24-506.98 446.13-774.4 161.82-330.59 177.53-723.8 42.86-1073.4-134.67-349.64-418.35-652.33-774.4-826.03zm765.63 5416.9c3.158 12.144 4.722 24.669 4.87 37.015-0.148-12.346-1.763-24.934-4.87-37.015zm3.896 55.523c-1.371 11.897-4.641 23.76-8.767 35.067 4.097-11.367 7.368-23.142 8.767-35.067zm-563.02 915.64c22.341 0.879 44.207 3.412 66.238 6.818-22.03-3.405-43.897-5.939-66.238-6.818zm-1028.6 22.404c-6.186 28.994-7.279 59.133-2.922 88.642-4.414-29.517-3.24-59.645 2.922-88.642zm1223.5 18.508c20.555 8.015 41.003 17.177 60.393 27.274 38.78 20.193 74.743 44.455 107.15 72.083-32.404-27.625-68.373-51.893-107.15-72.083-19.388-10.095-39.839-19.261-60.393-27.274zm-24.352 195.79c7.404 20.241 12.843 41.511 17.533 62.342-4.765-21.092-10.036-41.848-17.533-62.342zm700.37 26.301c-4.096 27.731-6.806 55.78-7.793 83.771 1.038-28.26 3.542-55.798 7.793-83.771zm-1791.3 27.274c16.955 12.639 35.136 23.81 54.549 33.119-19.643-9.354-37.424-20.344-54.549-33.119zm1783.6 101.3c1.295 35.893 6.048 71.004 13.637 106.18-7.517-34.897-12.353-70.595-13.637-106.18zm-337.03 154.88c-2.4 19.634-5.638 39.268-10.715 58.446 5.088-19.175 8.299-38.817 10.715-58.446zm589.32 366.26c20.171 20.445 40.79 39.975 63.316 58.446-22.327-18.28-43.309-38.166-63.316-58.446zm511.4 58.446c-5.662 9.648-12.069 18.75-19.481 27.274 7.433-8.603 13.819-17.626 19.481-27.274zm-1278 42.86c1.987 10.123 4.938 20.564 8.766 30.196-3.885-9.769-6.831-19.927-8.766-30.196zm905.9 8.766c13.367 7.544 27.59 15.306 41.885 21.43-14.519-6.22-28.32-13.77-41.885-21.43zm-876.68 57.472c3.76 4.931 8.28 9.22 12.663 13.637-4.622-4.639-8.76-8.518-12.663-13.637zm-581.53 135.4c-5.122 17.879-9.631 36.313-12.663 54.549 3.102-18.539 7.38-36.381 12.663-54.549zm802.65 334.11c-17.967 28.486-39.43 54.981-64.289 78.901 24.797-24.077 46.322-50.415 64.289-78.901zm-1826.4 168.52c11.546 28.697 24.693 57.602 37.989 85.72-13.403-28.32-26.375-56.824-37.989-85.72z"
    />
    <g
        id="g2825-9"
        transform="matrix(31.171 0 0 31.171 -50256 7336.1)"
      >
      <path
          id="path2820-4"
          style="fill:#ffff00"
          d="m346.5 235.16c-8.256 5.6275-14.584 13.511-17.938 22.344-3.3539 8.8326-3.7385 18.6-1.0938 27.75 1.7394 6.018 4.735 11.718 6.6875 17.688 0.9762 2.9848 1.7033 6.0346 1.8438 9.125 0.14045 3.0905-0.31328 6.2201-1.5938 9.0625-1.0958 2.4325-2.8177 4.6591-5.1875 6.1875-2.3699 1.5283-5.4198 2.3154-8.3438 1.875-2.8076-0.42286-5.3906-1.9775-6.9062-4.1562-1.5156-2.1788-1.9322-4.9358-1.0938-7.3438-6.4918 9.9155-10.13 21.336-10.469 32.938-0.27108 9.2918 1.6084 18.778 6.125 27.25 4.5166 8.4724 11.777 15.916 20.938 20.5 10.139 5.0737 22.353 6.4303 33.469 4.0312 11.116-2.3992 21.056-8.4813 27.781-16.688 9.3704-11.434 12.309-26.966 7.75-40.812 0.3067 1.392 0.0704 2.8869-0.65625 4.125-0.72667 1.2382-1.933 2.2076-3.375 2.75-1.1363 0.42355-2.4156 0.5918-3.6562 0.5-1.2406-0.0919-2.4312-0.42141-3.5625-0.90625-2.2625-0.96932-4.1475-2.5311-5.8125-4.2188-4.5945-4.6567-7.8722-10.578-8.0938-16.719-0.13777-3.8188 0.90363-7.5526 2-11.219 1.0964-3.6663 2.2782-7.3483 2.5-11.156 0.28903-4.9616-1.12-10.028-4-14.344-2.88-4.3159-7.228-7.8844-12.281-10.062 1.3396 1.0637 2.1685 2.6657 2.1875 4.25 0.0194 1.5844-0.77984 3.1232-2.0938 4.1562-1.0618 0.83487-2.4239 1.3145-3.8438 1.4375-1.4199 0.12211-2.8774-0.0898-4.2188-0.5625-2.6826-0.94535-4.8628-2.802-6.6875-4.8125-5.4892-6.0482-8.3895-13.752-9.1875-21.438-1.1505-11.08 2.0079-22.393 8.8125-31.531zm-0.875 82.719c5.7338 0.22565 11.296 3.122 14.344 7.4688 3.0479 4.3466 3.502 10.019 1.1562 14.625-0.69998 1.3747-1.6433 2.6513-2.4688 3.9688-0.82549 1.3174-1.5656 2.6948-1.8438 4.1875-0.27806 1.4929-0.0274 3.1403 0.9375 4.4062 0.48242 0.63282 1.1292 1.1402 1.9062 1.4688 0.777 0.32862 1.6632 0.46068 2.5 0.3125 0.65266-0.11565 1.2642-0.38197 1.75-0.78125 0.48581-0.39911 0.85261-0.93263 1.0312-1.5 0.56054 1.0641 1.0062 2.1794 1.3438 3.3125 1.2185 4.0905 0.86812 8.5947-1.4375 12.25-1.1528 1.8278-2.7829 3.4044-4.75 4.5625-1.9671 1.1583-4.2839 1.8797-6.6562 2-3.9973 0.2027-8.0515-1.3264-10.812-3.9375-2.761-2.6113-4.2278-6.2326-4.125-9.7812 0.07-2.4136 0.84431-4.7707 1.9375-6.9688 1.0932-2.198 2.5269-4.2373 4-6.25 2.9462-4.0252 6.1601-8.0937 7.25-12.812 0.68029-2.9452 0.46032-6.0562-0.59375-8.9375-1.054-2.8812-2.955-5.5271-5.4688-7.5938z"
      />
    </g
    >
  </g
  >
  <g
      id="g4488"
      transform="matrix(.57045 0 0 .57045 33914 -3593.9)"
    >
    <path
        id="fire:red-8"
        style="fill:#ff0000"
        d="m-26276 20473c-1465.9 51.796-3304.2-882.32-3367.1-3042.4-49.049-1683.1-825.3-2369.4-825.3-2369.4 1201.9-140 1155.3 677.11 1477.6 672.97 0 0 286.64-1421.1-279.4-2088.9 1101.9-127.67 1249.4 1168.8 1405.3 888.25 12.92-344.13 237.08-1870-517.09-2827.7 0 0 629.36 9.368 1639.5 1021.3-117.72-608.36-214.69-1818.8 874.14-3514.8 20.206 581.63 158.23 1822 606.58 2625.6 545.22 977.25 106.04 2131.8 547.56 2178.5 353.49 37.439 638.53-1810.3 702.96-2335.8 403.2 40.661 174.29 3053.9 557.63 3230.1 316.92 145.67 675.95-1061.4 873.54-1563.6 99.3-252.34 431.83 2038.7-93.123 2895.9-368.64 601.93 835.91-504.61 1836.7-446.41-492.44 296.48-933.21 1219.2-1135.3 2677.1-96.671 697.45-1354.9 2059.7-2997.1 2014.8-801.52-21.924-1213.5 15.876-1307.1-15.294z"
    />
    <path
        id="fire:yellow-8"
        style="fill:#ffff00"
        d="m-25233 20514c275.63-22.965 1791.6-811.58 1669.1-1960 0 0-375.16 290.94-811.59 183.75 229.7-382.83 1179.1-1852.9 719.72-2350.5 0 0-918.78 1240.3-1056.6 1033.6-137.82-206.72 267.98-1891.1 38.277-2197.4 0 0-490 1209.7-650.8 1110.2-267.98-160.78-512.98-1699.7-597.2-1898.8 0 0-45.934 1944.7-260.32 1730.4-214.39-214.38-666.11-1018.3-735.02-1286.3-436.42 260.32-200.47 2355.4-1.393 2922-627.84-436.42-833.17-1030.8-1330.8-1390.7 0 0-104.42 1515.1 592.33 2051 0 0-347.34 108.12-722.49-22.041-30.635 413.45 1071.9 2044.3 2097.9 2097.9 1026 53.603 1064.2-7.663 1048.9-22.97z"
    />
  </g
  >
  <g
      id="g4500"
      transform="translate(41636 -12134)"
    >
    <path
        id="path30029"
        sodipodi:nodetypes="csssssssssssssssssc"
        style="fill-rule:evenodd;fill:#ff0000"
        d="m-31727 17372c58.984 2203.6-843.84 2924.4-2678.7 2924.4-1815.1 0-2678.6-406.23-2659-3160.3 5.933-832.4 459.06 919.36 507.44 326.64 88.675-1086.3-412.2-1127.7 8.562-2307.4 128.44-360.08 606.8 1253.8 619.79 811.28 25.934-863.42-218.79-910.04-265.77-1320.8-81.836-715.47 226.71-1344.8 274.26-1200.8 263.82 798.75 454.92 934.66 761.73 1477.2 297.81 526.62-177.1-1030.4-200.56-1534.2-13.974-299.94 99.433-1478.3 219.76-1215.2 437.7 957.02 1162.5 1109.6 1341.5 2294.4 29.581 195.82 232.85-97.964 265.48-391.2 30.695-275.84 47.413-536.26 178.43-396.6 627.88 669.37 302.81 1352 608.48 2018.4 148.37 323.48 258.14-1100 396.3-881.57 356 562.94 565.64 1509.2 397.69 2152.6-234.38 897.93-675.39 1222.4-368.7 1066.7 267.23-135.62 593.3-716.99 593.3-663.46z"
    />
    <path
        id="path8576"
        sodipodi:nodetypes="csssccsssscscsc"
        style="fill-rule:evenodd;fill:#ffff00"
        d="m-32735 18952c32.673 666.94-723 1019-1739.3 1019-1005.4 0-1483.7-122.97-1472.8-956.54 3.288-251.96 342.75 376.56 369.55 197.16 49.115-328.78-444.59-868.91-476.94-1147.3 105.98-3.991 225.41-46.282 878.84 607.98 146.13 241.75 700.77 814.34 215.49-302.74-40.432-93.091-343.85-480.25-356.85-632.72-4-46.921 603.22 36.337 1011.7 316.71 179.69 123.34 29.309-646-163.66-1185.3-115.65-323.24 787.58 288.03 944.86 1045.6 422.38-461.18 773.01-776.5 753.11-629.46-131.57 972.15-650.63 1166.7-737.11 1515.8-21.696 173.46 19.108 533.57 188.98 486.47 148.02-41.034 584.22-350.89 584.22-334.66z"
    />
    <path
        id="path8578"
        style="stroke:#000000;stroke-width:345.26;fill:none"
        d="m-36755 20193h4722"
    />
  </g
  >
  <path
      id="path4567"
      style="fill:#ff0000"
      d="m24073 2108.2c-0.331 0-0.717 0.06-1.031 0.156-28.85 9.616-87.267 133.73-115.66 245.66-15.836 62.434-31.505 266.46-40.469 526.88-14.679 426.38-34.216 555.48-97.093 641.47-24.006 32.831-28.534 29.013-75.031-63.594-127.9-254.73-258.56-404.45-385.88-442.16-37.032-10.971-40.037-8.371-24.218 21.188 39.441 73.694 75.52 320.43 75.406 516.03-0.163 302.08-73.924 729.08-183.34 1061l-38.031 115.38-101.72-196.72c-96.008-185.69-256.4-386.59-308.62-386.59-12.896 0-19.219 104.79-19.219 317.16 0 341.49-15.237 527.9-74.937 917.31l-38.125 248.78-108.53-118.38c-117.98-128.75-224.13-201.49-205.75-140.94 50.528 166.45 59.554 337.38 28.031 530.34-43.474 266.12-50.506 391.84-31.812 569.69 28.481 271 92.602 497.76 206.37 730.03 86.546 176.69 121.38 226.5 248.56 354.94 151.25 152.75 258.22 220.68 446.38 283.59 67.511 22.572 124.19 30.037 246.34 29.156 3.307-0.02 6.753-0.06 10.156-0.09h0.906c4.332-0.05 8.725-0.121 13.219-0.187 2.988-0.04 6.094-0.07 9.156-0.125 1.811-0.03 3.726-0.06 5.563-0.09 1.431-0.03 3.021-0.07 4.468-0.09 8.658-0.167 17.457-0.368 26.719-0.593 4.826-0.118 9.59-0.238 14.375-0.375 2.21-0.06 4.395-0.12 6.594-0.188 2.571-0.08 5.101-0.165 7.656-0.25 4.368-0.144 8.717-0.309 13.032-0.468 0.358-0.01 0.704-0.02 1.062-0.03 6.467-0.242 12.835-0.506 19.156-0.781 3.737-0.163 7.385-0.327 11.063-0.5 7.24-0.34 14.368-0.715 21.343-1.094 0.789-0.04 1.591-0.08 2.376-0.125 1.341-0.07 2.638-0.143 3.968-0.218 0.585-0.03 1.136-0.06 1.719-0.09 4.537-0.261 8.979-0.537 13.375-0.813 1.073-0.07 2.155-0.119 3.219-0.187 0.95-0.06 1.838-0.126 2.781-0.188 5.01-0.325 9.894-0.657 14.688-1 3.011-0.216 5.861-0.434 8.781-0.656 2.642-0.201 5.187-0.388 7.75-0.594 5.335-0.428 10.502-0.865 15.469-1.312 4.966-0.447 9.749-0.912 14.312-1.375 4.311-0.437 8.392-0.864 12.312-1.313 0.244-0.03 0.478-0.06 0.719-0.09 2.12-0.244 4.005-0.473 6-0.718 1.882-0.233 3.7-0.453 5.469-0.688 0.06 0 0.123-0.02 0.188-0.03 0.763-0.101 1.477-0.211 2.218-0.313 1.039-0.141 2.098-0.263 3.094-0.406 1.581-0.227 3.093-0.458 4.562-0.687 0.118-0.02 0.228-0.04 0.344-0.06 1.601-0.251 3.037-0.498 4.5-0.75 0.741-0.127 1.421-0.247 2.125-0.375 0.723-0.13 1.316-0.244 2-0.375 1.301-0.248 2.529-0.47 3.688-0.718 1.163-0.25 2.234-0.501 3.25-0.75 0.527-0.13 0.982-0.246 1.469-0.376 0.472-0.125 0.909-0.249 1.343-0.374 0.236-0.07 0.432-0.12 0.657-0.188 0.617-0.186 1.188-0.376 1.718-0.562 1.351-0.475 2.458-0.968 3.219-1.438 0.624-0.385 1.169-0.78 1.687-1.188 70.329 4.092 155.52 1.903 246.75-7.624 105.6-11.028 201.2-30.02 273.84-52.5l-3.687 2.281 99.156 35.562c5.851 2.099 11.994 4.101 18.344 6.063 1.839 0.568 3.714 1.13 5.593 1.687 1.767 0.524 3.543 1.05 5.344 1.563 1.105 0.314 2.226 0.626 3.344 0.937 0.616 0.172 1.224 0.33 1.844 0.5 2.277 0.625 4.577 1.235 6.906 1.844 1.323 0.346 2.661 0.69 4 1.031 1.275 0.325 2.554 0.649 3.844 0.969 0.66 0.164 1.304 0.337 1.968 0.5 0.792 0.194 1.579 0.37 2.376 0.563 0.797 0.192 1.603 0.402 2.406 0.593 1.279 0.304 2.551 0.607 3.844 0.907 0.05 0.01 0.104 0.02 0.156 0.03 2.053 0.475 4.132 0.942 6.218 1.406 2.139 0.476 4.297 0.942 6.469 1.406 1.813 0.388 3.602 0.777 5.438 1.157 0.376 0.08 0.748 0.141 1.125 0.218 1.104 0.227 2.231 0.433 3.344 0.656 1.424 0.287 2.843 0.594 4.281 0.876 0.539 0.105 1.084 0.207 1.625 0.312 2.19 0.425 4.405 0.836 6.625 1.25 0.649 0.121 1.285 0.255 1.937 0.375 3.113 0.573 6.238 1.136 9.406 1.687 0.106 0.02 0.207 0.04 0.313 0.06 8.967 1.559 18.154 3.022 27.531 4.406 0.408 0.06 0.811 0.128 1.219 0.188 0.493 0.07 0.975 0.147 1.469 0.219 4.262 0.619 8.536 1.197 12.875 1.781 9.66 1.299 19.526 2.535 29.531 3.656 0.314 0.03 0.623 0.06 0.938 0.09 5.164 0.575 10.378 1.128 15.624 1.656 10.494 1.056 21.124 2.01 31.907 2.875 5.391 0.432 10.827 0.834 16.281 1.219v0.03c157.9 11.143 340.66 2.159 469.97-28.531 320.36-76.035 649.45-278.04 852.47-523.28 235.88-284.92 368.88-704.74 330.81-1044.2-16.863-150.34-52.282-339.79-61.656-329.75-3.059 3.277-27.577 58.874-54.469 123.53-52.509 126.25-125.34 235.09-157.31 235.09-36.012 0-4.444-286.48 47.126-427.78 106.43-291.61 126.09-716.74 47.562-1028.1-20.066-79.576-77.614-228.07-127.88-330.03-87.24-176.98-126.12-224.04-126.12-152.66 0 17.998-17.165 101.42-38.125 185.38-40.965 164.1-113.15 317.07-162 343.22-26.311 14.079-33.09-1.924-52.219-123.38-100.68-639.24-312.2-1215.1-531.78-1447.7-108.99-115.47-110.96-113.38-112.75 120.94-1.491 194.5-16.837 293.58-64.656 416.31-16.957 43.531-22.783 33.179-69.719-123.91-66.965-224.12-219.56-525.56-380.09-750.97-203.42-285.62-297.78-490.86-343.56-747.03-12.491-69.881-30.545-124.86-40.875-125.16zm-1224.5 5872.8v54.281 54.25h1329.3 1329.2v-54.25-54.281h-1329.2-1329.3z"
  />
  <path
      id="path4587"
      style="fill:#ffff00"
      d="m24078 2113.4c0.288 0.343 0.581 0.663 0.875 1.062-0.29-0.392-0.59-0.725-0.875-1.062zm2.094 2.843c0.414 0.643 0.856 1.353 1.281 2.094-0.429-0.748-0.862-1.444-1.281-2.094zm-19.844 2.875c-1.103 1.134-2.23 2.334-3.375 3.656 1.145-1.323 2.335-2.524 3.437-3.656h-0.06zm82.218 244.5c2.007 7.578 4.062 15.128 6.188 22.656-2.125-7.527-4.181-15.078-6.188-22.656zm754.38 1514.2c-0.229 0.207-0.427 0.395-0.657 0.563 0.22-0.165 0.437-0.364 0.657-0.563zm-5.626 1.25c0.369 0.168 0.739 0.267 1.094 0.344-0.355-0.08-0.725-0.179-1.094-0.344zm969.22 539.25c-1.167 5.884-2.424 12.11-3.781 18.594 1.357-6.481 2.614-12.704 3.781-18.594zm-1430 440.31c-0.286 0.03-0.488 0.15-0.688 0.344-4.244 4.245-1.131 133.08 6.938 286.34 17.988 341.7-0.07 648.18-49.375 837.53-36.516 140.24-156.12 391.03-192.22 403.06-52.16 17.387-308.62-462.73-345.41-646.66-5.834-29.165-16.854-53.031-24.469-53.031-7.613 0-32.885 67.153-56.219 149.22-36.754 129.25-42.246 186.66-40.812 429.5 1.468 248.83 7.637 303.24 54.844 483.84 29.251 111.9 47.942 203.47 41.5 203.47-6.445 0-39.421-18.552-73.219-41.188-125.54-84.074-228.23-361.81-349.31-944.5-56.12-270.08-61.581-285.76-81.874-235.12-44.506 111.04-69.219 240.35-81.219 425-21.206 326.33-42.741 344.4-311.72 261.78l-39.312-12.031 34.718 159.97c133.16 614.12 403.2 1033.9 782.78 1216.7 72.585 34.961 97.086 53.962 83.124 64.937 70.329 4.092 155.52 1.903 246.75-7.624 105.58-11.027 201.18-30.024 273.81-52.5h0.03l68.313-42.438c39.624-24.592 161.58-97.116 271-161.16 149.44-87.468 239.69-156.91 362.81-279.19 175.42-174.22 258.49-308.35 330.41-533.56 39.7-124.33 99.065-398.34 88.593-408.81-3.408-3.408-36.694 14.588-74 39.938-37.305 25.348-96.925 58.23-132.5 73.093-58.72 24.535-63.684 24.357-53.593-1.937 80.483-209.74 102.52-592.43 41.687-724.09l-33.437-72.343-61.344 133.12c-79.594 172.66-208.84 352.68-301.25 419.63-40.331 29.216-79.479 53.124-87.032 53.124-7.55 0 1.555-31.679 20.25-70.374 110.44-228.6 91.078-546.92-54-887.84-58.396-137.23-246.51-468.1-264.56-466.22zm-2092.3 492.66c-0.283 0-0.548 0.04-0.812 0.06 0.528-0.03 1.076-0.08 1.656-0.06h-0.844zm-0.812 0.06c-0.529 0.03-1.026 0.09-1.5 0.187 0.474-0.09 0.971-0.15 1.5-0.187zm33.718 463.03c-0.879 8.739-1.846 17.516-2.906 26.344 1.06-8.828 2.027-17.605 2.906-26.344zm3664 485.5c-0.575 0.207-1.192 0.405-1.75 0.563 0.576-0.165 1.154-0.348 1.75-0.563zm-3158.4 1346.9c4.303 3.736 8.568 7.401 12.844 11-4.281-3.603-8.543-7.266-12.844-11zm2190.8 203.47c-4.813 0.858-9.685 1.692-14.594 2.5 4.908-0.807 9.78-1.641 14.594-2.5zm-229.84 21.813c-4.32 0.115-8.644 0.22-12.969 0.312 4.325-0.1 8.649-0.193 12.969-0.312zm-89.094 0.468c4.848 0.08 9.702 0.148 14.562 0.188-4.852-0.05-9.722-0.113-14.562-0.188zm25.125 0.25c5.353 0.02 10.701 0.02 16.063 0-5.367 0.02-10.702 0.02-16.063 0z"
  />
  <metadata
    >
    <rdf:RDF
      >
      <cc:Work
        >
        <dc:format
          >image/svg+xml</dc:format
        >
        <dc:type
            rdf:resource="http://purl.org/dc/dcmitype/StillImage"
        />
        <cc:license
            rdf:resource="http://creativecommons.org/licenses/publicdomain/"
        />
        <dc:publisher
          >
          <cc:Agent
              rdf:about="http://openclipart.org/"
            >
            <dc:title
              >Openclipart</dc:title
            >
          </cc:Agent
          >
        </dc:publisher
        >
        <dc:title
          >fire and flames remixes</dc:title
        >
        <dc:date
          >2011-08-01T14:11:14</dc:date
        >
        <dc:description
        />
        <dc:source
          >https://openclipart.org/detail/153073/fire-and-flames-remixes-by-worker</dc:source
        >
        <dc:creator
          >
          <cc:Agent
            >
            <dc:title
              >worker</dc:title
            >
          </cc:Agent
          >
        </dc:creator
        >
        <dc:subject
          >
          <rdf:Bag
            >
            <rdf:li
              >and</rdf:li
            >
            <rdf:li
              >burn</rdf:li
            >
            <rdf:li
              >fire</rdf:li
            >
            <rdf:li
              >flames</rdf:li
            >
            <rdf:li
              >remixes</rdf:li
            >
          </rdf:Bag
          >
        </dc:subject
        >
      </cc:Work
      >
      <cc:License
          rdf:about="http://creativecommons.org/licenses/publicdomain/"
        >
        <cc:permits
            rdf:resource="http://creativecommons.org/ns#Reproduction"
        />
        <cc:permits
            rdf:resource="http://creativecommons.org/ns#Distribution"
        />
        <cc:permits
            rdf:resource="http://creativecommons.org/ns#DerivativeWorks"
        />
      </cc:License
      >
    </rdf:RDF
    >
  </metadata
  >
</svg
>
</font>
</defs>
</svg>
