<?xml version="1.0" encoding="UTF-8" standalone="no"?>
<!-- Created with Inkscape (http://www.inkscape.org/) -->
<svg
    xmlns:inkscape="http://www.inkscape.org/namespaces/inkscape"
    xmlns:rdf="http://www.w3.org/1999/02/22-rdf-syntax-ns#"
    xmlns="http://www.w3.org/2000/svg"
    xmlns:cc="http://creativecommons.org/ns#"
    xmlns:dc="http://purl.org/dc/elements/1.1/"
    xmlns:sodipodi="http://sodipodi.sourceforge.net/DTD/sodipodi-0.dtd"
    id="svg3353"
    sodipodi:docname="_svgclean2.svg"
    version="1.1"
    inkscape:version="0.91pre3 r13670"
    viewBox="0 0 2200.3047 1560.3524"
  >
  <defs
      id="defs3355"
    >
    <font
        id="FontID0"
        horiz-origin-x="0"
        horiz-origin-y="0"
        style="font-weight:400"
        vert-origin-x="45"
        horiz-adv-x="795"
        vert-origin-y="90"
        vert-adv-y="90"
        font-weight="400"
      >
      <font-face
          id="font-face4965"
          font-family="Gotham Black"
      />
      <missing-glyph
          id="missing-glyph4967"
        >
        <path
            id="path4969"
            d="m0 0z"
        />
      </missing-glyph
      >
      <glyph
          id="glyph4971"
          unicode="D"
          horiz-adv-x="766"
        >
        <path
            id="path4973"
            d="m62 0h267c251 0 398 150 398 352v2.0004c0 202-145 346-394 346h-271v-700zm273 529c117 0 194-66.001 194-178v-2.0004c0-113-77.002-177-194-177h-79v357h79z"
        />
      </glyph
      >
      <glyph
          id="glyph4975"
          unicode="O"
          horiz-adv-x="830"
        >
        <path
            id="path4977"
            d="m415-14.001c216 0 378 163 378 364v1.9985c0 201-160 362-376 362s-378-163-378-364v-2.0004c0-201 160-362 376-362zm2.0004 175c-107 0-180 88-180 189v1.9985c0 101 71 187 178 187s179-87.002 179-189v-2.0004c0-101-71-187-177-187z"
        />
      </glyph
      >
      <glyph
          id="glyph4979"
          unicode="I"
          horiz-adv-x="327"
        >
        <path
            id="path4981"
            d="m67 0h194v700h-194v-700z"
        />
      </glyph
      >
      <glyph
          id="glyph4983"
          unicode="N"
          horiz-adv-x="785"
        >
        <path
            id="path4985"
            d="m62 0h192v384l300-384h169v700h-192v-370l-288 370h-181v-700z"
        />
      </glyph
      >
      <glyph
          id="glyph4987"
          unicode="B"
          horiz-adv-x="715"
        >
        <path
            id="path4989"
            d="m62 0h361c167 0 265 73.001 265 193v1.9985c0 95.001-54.001 143-139 171 61.999 27 108 74.999 108 156v2.0004c0 48-17.001 84.999-45.001 114-41 40-103 61.999-191 61.999h-359v-700zm404 482c0-41-34.001-61-93.001-61h-122v123h127c57 0 88-21 88-60v-2.0004zm28-260v-2.0004c0-41-33.001-64.001-93.001-64.001h-150v129h148c64.999 0 94.999-24.999 94.999-62.999z"
        />
      </glyph
      >
      <glyph
          id="glyph4991"
          unicode=" "
          horiz-adv-x="276"
      />
    </font
    >
    <style
        id="style4993"
        type="text/css"
      >@font-face { font-family:"Gotham Black";src:url("#FontID0") format(svg)}
    .str4 {stroke:#262223;stroke-width:0.390945}
    .str2 {stroke:#56C4D0;stroke-width:0.390945}
    .str1 {stroke:#C3C4C6;stroke-width:0.390945}
    .str3 {stroke:#EF1C25;stroke-width:0.390945}
    .str0 {stroke:white;stroke-width:0.390945}
    .str5 {stroke:#0038B8;stroke-width:9.47362}
    .fil3 {fill:none}
    .fil6 {fill:#0038B8}
    .fil5 {fill:#262223}
    .fil4 {fill:#56C4D0}
    .fil8 {fill:#56C4D0}
    .fil2 {fill:#C3C4C6}
    .fil1 {fill:#EF1C25}
    .fil0 {fill:white}
    .fil7 {fill:black;fill-opacity:0.000000}
    .fnt0 {font-weight:normal;font-size:624.684px;font-family:'Gotham Black'}</style
    >
    <font
        id="FontID0-7"
        horiz-origin-x="0"
        horiz-origin-y="0"
        style="font-weight:400"
        vert-origin-x="45"
        horiz-adv-x="711"
        vert-origin-y="90"
        vert-adv-y="90"
        font-weight="400"
      >
      <font-face
          id="font-face8818"
          font-family="Paramount Script"
      />
      <missing-glyph
          id="missing-glyph8820"
        >
        <path
            id="path8822"
            d="m0 0z"
        />
      </missing-glyph
      >
      <glyph
          id="glyph8824"
          unicode="n"
          horiz-adv-x="333"
        >
        <path
            id="path8826"
            d="m259.33 306.17h15.499c23.504-4.1732 35.171-10.171 35.171-17.664 2.664-4.8425 4.0026-10 4.0026-15.499v-5.8399l-74.173-170c-5.3281-14.659-7.8346-24.331-7.8346-29.331v-3.832c0-3.0052 3.1758-4.8294 9.6719-5.8399 14.331 0 35.84 15 64.501 44.842 4.8294 7.8346 11.339 14.331 19.501 19.501 4.0026-4.8425 5.8268-9.3438 5.8268-13.674v-7.8346c0-16.168-16.824-35-50.656-56.496-36.509-36.496-70.341-54.672-101.67-54.829h-3.8451c-23.491 0.15748-36.496 14.331-39.16 42.992v4.0026c9.1601 28.333 26.168 70 50.827 125 0 5.4987 6.5092 19.829 19.501 43.005 9.1732 20.158 15 35 17.677 44.829-2.6772 9.1601-6.5092 13.661-11.837 13.661-23.674-3.1627-55-35.827-93.674-97.664-11.667-20.499-34.488-71.326-68.333-152.34-5.8268-7.8346-12.323-11.667-19.488-11.667h-23.504c-1.3386 0-2.0079 0.66929-2.0079 2.0079l-3.832-2.0079h-1.9948c-2.8346 0-5.4987 0.66929-7.8346 2.0079-1.3386 0-1.8373-0.66929-1.9948-2.0079-9.6719 1.3386-16.168 3.1758-19.501 5.8399 17.323 52.664 30.997 85.997 40.997 99.659 7.8346 17.507 16.995 41.01 27.336 70.341 3.3333 0 19.003 31.168 46.995 93.661 8.1627 20.84 16.496 31.339 25.341 31.339h23.491c7.1654 0 16.168 0.49869 27.336 1.8373 7.8346-2.5066 11.667-5.1706 11.667-7.8346-6.4961-16.509-9.8294-28.333-9.8294-35.171 40.827 26.168 64.829 39.16 72.336 39.16 10.997 3.8451 18.832 5.8399 23.491 5.8399z"
        />
      </glyph
      >
      <glyph
          id="glyph8828"
          unicode="p"
          horiz-adv-x="208"
        >
        <path
            id="path8830"
            d="m129.83 249.5c-5.8268-11.995-14.829-28.163-26.824-48.333-3.5039-7.1654-7.336-15-11.168-23.504-20.84-37.336-33.176-67.664-37.165-90.669-0.66929-0.32808-3.3333-13.491-8.3333-39.16 0-13.333 6.168-20 18.661-20 16.496 0 43.504 38.661 80.997 116.17 24.672 51.168 37.165 88.333 37.165 111.32 0 14.672-6.168 22.008-18.661 22.008h-1.8373c-9.1601 0-20.158-9.3307-32.835-27.835zm-108.83-237.34c-23.832-60.499-53.333-137.16-88.832-230-5.8268-7.664-12.336-11.667-19.501-11.667h-23.504c-1.3255 0-1.9948 0.66929-1.9948 1.9948l-3.832-1.9948h-1.9948c-2.8346 0-5.5118 0.66929-7.8346 1.9948-1.3386 0-2.0079-0.65617-2.0079-1.9948-9.6588 1.3386-16.168 3.3333-19.501 5.8399 17.336 52.822 61.339 168.66 131.84 347.66 7.8346 17.664 17.008 40.997 27.336 70.328 3.3333 0 19.003 31.339 46.995 93.832 8.0052 20.84 16.509 31.168 25.341 31.168h23.491c7.1785 0 16.168 0.66929 27.336 2.0079 7.8346-2.6772 11.667-5.1706 11.667-7.8346-3.832-10.171-6.6667-18.176-8.3333-24.501 13.674 3.6614 27.664 5.4987 42.008 5.4987 29.331-5.3281 43.99-11.496 43.99-18.661 21.168-52.008 7.1785-116.84-41.995-194.34-45.328-49.501-84.829-74.16-118.66-74.16h-23.504c-6.168 0-12.336 1.6667-18.504 4.8294z"
        />
      </glyph
      >
      <glyph
          id="glyph8832"
          unicode="g"
          horiz-adv-x="307"
        >
        <path
            id="path8834"
            d="m80 46.837c0-15.499 7.1654-23.333 21.496-23.333 19.344 0 50.499 44.829 93.832 134.66 28.674 59.003 43.005 102.01 43.005 129 0 16.837-7.1654 25.341-21.496 25.341h-2.0079c-20.158 0-47.493-38.333-81.995-115.17-24.173-43.333-38.504-78.504-43.005-105.5-0.99738-0.34121-4.1601-15.341-9.8294-45zm61.168-37.008c-14.672-6.4961-28.504-9.8294-41.496-9.8294h-27.336c-15.669 0-32.008 9.8294-48.832 29.331-15.669 19.501-23.504 41.667-23.504 66.339v11.837c22.835 63.99 49.501 114.83 80 152.32 2.664 0 7.8346 5.1706 15.669 15.499 44.003 37.835 90.171 56.667 138.66 56.667 19.501-3.1627 33.333-6.9948 41.509-11.155 6.4961 5.4987 15.328 8.3333 26.496 8.3333h42.835c1.9948 0 4.0026-2.0079 5.8268-5.8399v-1.9948c-10.997-27.677-22.664-55.84-35-84.501l2.336-0.49869c-3.5039-4.8425-6.4961-9.6719-8.832-14.173-1.4961-3.5039-3.1627-7.1654-4.8294-10.669-1.3386-4.6588-2.0079-8.6614-2.0079-12.323 0-6.8373-8.4908-24.173-25.827-52.178-30-70.328-47.507-114.66-52.664-132.82-13.333-38.176-29.842-68.346-49.344-90.84-23.832-28.661-51.824-51.667-83.99-69.331-1.6667 0-5.1706-2.0079-10.84-5.8399-22.336-14.331-57.835-24.501-106.34-30.328l-6.3255 0.99738h-9.8425c-3.1627 0-6.4961-0.32808-9.8294-0.99738-17.493 1.9948-26.326 3.6614-26.326 4.8294l-2.336-1.3255c-27.008 6.1549-47.008 13.491-59.672 21.995-5.1706 2.4934-14.501 9.8294-27.835 21.837-12.336 18.661-19.16 33.661-20.499 45v7.3228c0 32.835 13.674 53.333 40.997 61.509 2.6772 0 4.0026 0.49869 4.0026 1.4961 18.163 0 29.173-9.3307 32.664-27.835v-9.8294c0-9.3307-5.6562-21.667-17.165-36.667 0-1.4961-0.99738-5.6693-3.3333-12.165 2.336-12.664 7.5066-24.331 15.669-35.171 15.84-18.504 41.339-27.835 76.168-27.835 29.331 0 54.331 8.1627 75.171 24.501 22.835 12.336 45 36.168 66.824 71.339 6.168 8.3333 19.344 35.997 39.173 82.992z"
        />
      </glyph
      >
      <glyph
          id="glyph8836"
          unicode="d"
          horiz-adv-x="292"
        >
        <path
            id="path8838"
            d="m48.333 46.837c0-15.499 7.1654-23.333 21.496-23.333 19.173 0 50.499 44.829 93.674 134.66 28.661 59.003 42.992 102.01 42.992 129 0 16.837-7.1654 25.341-21.496 25.341h-1.8373c-20.158 0-47.664-38.333-82.165-115.17-24.003-43.333-38.333-78.504-42.835-105.5-0.99738-0.34121-4.3307-15.341-9.8294-45zm91.339-20c-26.01-17.835-50-26.837-71.837-26.837h-27.336c-15.669 0-31.837 9.8294-48.832 29.331-15.669 19.501-23.333 41.667-23.333 66.339v11.837c22.664 63.99 49.331 114.83 80 152.32 2.664 0 7.8346 5.1706 15.669 15.499 44.003 37.835 90.171 56.667 138.66 56.667 19.501-3.1627 33.333-6.9948 41.509-11.155 25.328 57.664 56.667 128.33 93.661 212.32l9.8294 2.0079h44.842c9.8294 0 15-2.0079 15.656-5.8399v-1.9948c0-4.8294-45.656-113.68-137.16-326.17v-1.9948c0-6.168-6.9948-20.84-20.997-43.845-7.1654-15-15.827-32.493-25.827-52.323 0-2.1654-4.0026-14.003-11.837-35.171v-1.8373c0-12.493 5.3281-19.659 15.669-21.496 16.667 5.8268 30.997 20.171 42.992 42.835l27.336 31.326h1.9948v-1.9948c1.3386-20.827 2.0079-33.163 2.0079-36.995-39.501-45.669-60.341-68.504-62.507-68.504-18.333-8.0052-37.165-13.333-56.667-15.499-20.158 0-34.659 10.328-43.491 31.168z"
        />
      </glyph
      >
      <glyph
          id="glyph8840"
          unicode="a"
          horiz-adv-x="317"
        >
        <path
            id="path8842"
            d="m259.83 318.33c44.173-3.832 66.339-10.997 66.339-21.496-6.4961-19.173-31.837-78.333-76.168-177.66l-13.661-37.178v-15.656c4.5013-7.6772 10.499-11.667 17.493-11.667h2.0079c11.496 4.8294 31.667 21.824 60.499 50.827l1.9948-4.0026v-17.493c0-7.1654-16.168-23.504-48.832-48.832-37.336-22.165-59.501-33.176-66.339-33.176v1.8373l-3.9895-1.8373h-5.8399c-30 0-44.829 18.176-44.829 54.672h-4.0026c-41.667-37.835-79.331-56.667-113.16-56.667h-7.8346c-14.003 0-27.008 7.8346-39.173 23.504-3.832 10-5.8268 17.165-5.8268 21.496v3.832c0 56.667 31.995 117.84 95.669 183.68 34.488 29.488 65.158 49.659 91.824 60.499 41.667 16.824 73.005 25.328 93.832 25.328zm-187.49-230.5c0-1.168 0.66929-3.1627 1.8373-5.8399-2.5066-4.1601-3.8451-8.1627-3.8451-11.667 0-7.1654 4.5013-13.661 13.674-19.488 42.336 0 86.496 55.997 132.84 167.99 22.165 37.336 33.163 62.165 33.163 74.173-2.664 1.3255-4.5013 1.9948-5.8268 1.9948-38.845-7.8346-75.84-35.827-111.34-84.003-40.328-59.003-60.499-100-60.499-123.16z"
        />
      </glyph
      >
      <glyph
          id="glyph8844"
          unicode="r"
          horiz-adv-x="255"
        >
        <path
            id="path8846"
            d="m263.66 314.5c11.667-3.3333 17.677-9.1732 17.677-17.664 0-3.832-9.8425-25.341-29.344-64.331v-7.8346c0-6.5092 2.5066-10.499 7.8346-11.837 5.1706 1.3386 9.6719 3.3333 13.674 5.9974h5.8268c2.0079 0 3.832-1.9948 5.8399-5.9974v-3.832c-0.99738-14.331-15.997-23.504-45-27.336 0-3.6614-11.667-6.168-35.171-7.8346-19.16 0-30.171 13.674-33.163 40.997-14.672 0-34.173-28.661-58.504-85.997-9.1601-9.3307-19.501-32.165-31.339-68.333-13.661-40.328-27.323-60.499-40.997-60.499h-50.827c-3.1758 0-5.1706 2.664-5.8399 7.8346 0 6.4961 6.4961 26.667 19.501 60.499 0 8.1627 7.8346 27.664 23.504 58.661 52.165 113.84 81.326 171.84 87.835 173.84h58.661c2.0079 0 3.832-2.0079 5.8399-5.8399-5.1706-16.995-7.8346-27.493-7.8346-31.339v-5.8268h4.0026c29.829 22.835 48.163 37.165 54.659 43.005 14.672 8.9895 25.669 13.661 33.163 13.661z"
        />
      </glyph
      >
      <glyph
          id="glyph8848"
          unicode="P"
          horiz-adv-x="910"
        >
        <path
            id="path8850"
            d="m593.33 704.67c5.1706-1.3386 9.6719-2.0079 13.661-2.0079 4.1732 0 7.5066 0.66929 9.6719 2.0079 63.832 0 132.16-13.176 205.17-39.173 0.66929-2.8346 10.997-7.4934 31.168-13.661 0-1.3386 18.832-14.331 56.667-39.003 37.493-32.835 62.835-63.504 76.168-91.837 6.8242-14.659 12.664-40 17.664-76.168 0-29.331-11.168-62.493-33.333-99.659-42.008-46.837-74.501-72.835-97.664-78.005-64.003-34.003-127.84-50.827-191.34-50.827v1.9948c-10.171 0-21.837-24.829-35.171-74.331-21.496-61.168-48.163-110-80-146.51-38.163-46.155-82.992-83.333-134.83-111.32-3.0052 0-8.832-3.1627-17.664-9.6719-35.997-23.163-93.333-39.501-171.84-48.832l-9.6719 2.0079h-15.656c-5.1706 0-10.499-0.66929-15.669-2.0079-28.674 3.1627-43.005 5.8399-43.005 7.8346l-3.832-1.9948c-43.661 9.8294-75.499 21.496-95.669 35.158-8.832 3.832-23.832 15.669-45 35.171-19.829 30-30.827 54.003-33.163 72.165v11.837c0 53.005 22.165 86.168 66.339 99.501 3.9895 0 5.9974 0.66929 5.9974 1.9948 29.501 0 47.165-15 52.664-44.829v-15.669c0-15-9.1601-34.501-27.336-58.661 0-2.5066-1.9948-9.0026-5.8268-19.501 3.832-20.84 12.336-39.672 25.328-56.667 25.669-29.842 66.667-44.842 123-44.842 47.336 0 87.664 13.005 121.17 39.003 36.496 19.842 72.165 58.333 107.32 115.34 20.84 28.163 51.509 99.16 91.837 212.84 37.507 88.491 75.171 159.5 113.33 212.84 58.005 71.667 106.67 107.49 146.5 107.49l2.0079-4.0026c-36.496-55.328-54.829-91.168-54.829-107.34-5.1706 0-14.842-22.822-29.173-68.333-24.829-61.824-37.165-100.33-37.165-115.33h1.9948c2.5066-1.3386 4.5013-1.8373 5.8399-1.8373 31.496 0 70 18.176 115.17 54.672 40.997 39.672 65.158 77.336 72.323 113.16 3.1758 0 7.8346 19.003 13.674 56.667 0 83.674-33.176 143.5-99.672 179.67-49.501 30-107.34 45-173.83 45-101.84 0-202.16-35.84-300.67-107.51-42.992-37.992-71.667-68.661-85.997-91.667-29.003-47.664-46.496-88.661-52.664-123.16-1.6667-10-3.6745-17.835-5.9974-23.333l1.9948-4.0026c-2.664-11.667-3.832-22.835-3.832-33.163 0-1.3386 0.66929-3.3333 1.8373-5.8399l-1.8373-9.8294c0-44.16 20.827-80 62.493-107.34 22.336-10.499 38.674-15.656 48.845-15.656h15.499c38.491 0 68.333 15.656 89.829 46.824 4.0026 6.5092 5.9974 11.667 5.9974 15.669v1.9948c0 9.3438-1.3255 23.674-4.0026 42.835 3.0052 23.504 13.333 35.171 31.339 35.171 0 1.3386 1.8373 1.9948 5.8268 1.9948h11.667c23.504-7.1654 35.171-15.656 35.171-25.328 3.0052 0 4.8294-5.8268 5.8399-17.664v-1.8373c0-34.16-21.509-64.829-64.501-91.837-41.667-19.488-76.667-29.331-105.34-29.331l-11.824 2.0079c-1.168 0-3.1758-0.66929-5.8399-2.0079-38.333 3.832-69.003 10.997-91.837 21.509-81.995 44.331-122.99 106.16-122.99 185.5 5.8268 45.328 16.326 81.168 31.326 107.49 12.336 21.168 33.176 46.496 62.507 76.168 35.499 32.165 70 58.163 103.5 78.163 36.667 21.339 84.331 41.509 142.49 60.499 18.333 9.0026 70.341 18.176 156.34 27.336 9.6588 0 16.824 0.66929 21.496 2.0079z"
        />
      </glyph
      >
      <glyph
          id="glyph8852"
          unicode="o"
          horiz-adv-x="316"
        >
        <path
            id="path8854"
            d="m234.33 332c33.832-5.8268 50.84-12.992 50.84-21.496 9.1601 0 17.493-24.003 25.328-72.165l7.8346-1.9948c19.501 3.832 37.165 12.992 52.835 27.323 9.0026 0 13.661-4.4882 13.661-13.661 0-17.165-14.331-27.664-42.992-31.168-25.997-3.3333-39.173-9.8294-39.173-19.659 0-11.01-21.995-48.845-66.326-113.18-52.165-57.336-97.677-85.997-136.67-85.997h-27.336c-15.669 0-32.008 9.8294-48.832 29.331-15.669 19.501-23.504 41.667-23.504 66.339v11.837c22.835 63.99 49.501 114.83 80 152.32 2.664 0 7.8346 5.1706 15.669 15.499 44.003 37.835 90.171 56.667 138.66 56.667zm-154.33-285.16c0-15.499 7.1654-23.333 21.496-23.333 19.344 0 50.499 44.829 93.832 134.66 28.674 59.003 43.005 102.01 43.005 129 0 16.837-7.1654 25.341-21.496 25.341h-2.0079c-20.158 0-47.493-38.333-81.995-115.17-24.173-43.333-38.504-78.504-43.005-105.5-0.99738-0.34121-4.1601-15.341-9.8294-45z"
        />
      </glyph
      >
    </font
    >
    <style
        id="style8856"
        type="text/css"
      >@font-face { font-family:"Paramount Script";src:url("#FontID0") format(svg)}
    .fil1 {fill:#00ADFF}
    .fil2 {fill:white}
    .fil0 {fill:#00ADFF;fill-rule:nonzero}
    .fnt0 {font-weight:normal;font-size:300px;font-family:'Paramount Script'}</style
    >
    <font
        id="FontID0-76"
        horiz-origin-x="0"
        horiz-origin-y="0"
        style="font-weight:400"
        vert-origin-x="45"
        horiz-adv-x="659"
        vert-origin-y="90"
        vert-adv-y="90"
        font-weight="400"
      >
      <font-face
          id="font-face11463"
          font-family="VTKS Estilosa"
      />
      <missing-glyph
          id="missing-glyph11465"
        >
        <path
            id="path11467"
            d="m0 0z"
        />
      </missing-glyph
      >
      <glyph
          id="glyph11469"
          unicode="U"
          horiz-adv-x="663"
        >
        <path
            id="path11471"
            d="m118.83 670h113.17l4.0016-3.9992-2.0008-302.5c0-38.502 2.6669-86.001 7.8331-142.5 37.668 42.832 71.667 64.332 101.5 64.332h15.668c25.998-5.8323 39-18.168 39-36.999v-15.668c-9.3354-37.833-25.002-56.665-46.836-56.665-15.666 0-23.332 17.665-23.332 52.665l1.8331 2.0008h9.8339l23.332-11.667h2.0008c3.3331 0 10.5 5.1662 21.501 15.666-7.5 26.001-19.833 39-37.167 39h-5.8346c-30.498 0-55.332-26.667-74.166-80.001l-2.0008-17.665c0-31.5 15-54.333 45-68.334 18.501-7.8331 38.001-11.667 58.5-11.667h9.8339c69 0 115.17 27.999 138.67 84 14.334 41.667 21.501 93.666 21.501 156.16l-9.8339 255.67c1.0016 52.165 3.6661 78.165 7.8331 78.165h113.33c2.4992 0 3.8339-2.0008 3.8339-6l-1.8331-78.165c2.4992-63.501 3.8339-150 3.8339-259.67 0-148.17-39-244.5-117.17-289-44.001-24.834-92.166-37.167-144.5-37.167h-25.5c-97.332 0-170.83 40.332-220.67 121.17-24.666 48.498-36.999 95.334-36.999 140.67l1.9984 19.5v11.667c0 3.8315-7.1669 5.8323-21.498 5.8323h-13.668c-30-5.1662-45-19.5-45-42.999h-2.0008c-15.498 11.166-23.332 22.833-23.332 35.166v15.666c5.8323 41.667 25.332 62.499 58.5 62.499-7.8331 10.5-11.667 22.167-11.667 35.168v9.8315c0 13.668 6.4984 25.335 19.5 35.168h1.9984c5.8346-7.8331 13.668-24.834 23.334-50.835l9.8339-5.8323 3.9992 103.5-1.9984 158.17c1.3323 10.5 3.3331 15.666 5.8323 15.666z"
        />
      </glyph
      >
      <glyph
          id="glyph11473"
          unicode="A"
          horiz-adv-x="659"
        >
        <path
            id="path11475"
            d="m404.33 658c7.8331-10.665 41.667-98.001 101.5-261.67l148.5-394.33-2.0008-2.0008h-121c-4.3346 0-14.001 24-29.334 72.168l-48.834 126.83-37.165-3.8339-87.834 9.8339c-37.833 0-61.833-13.665-72.333-40.833-5.1685-17.334-7.8331-30.165-7.8331-39 0-37.665 15-56.499 45-56.499 18.165 3.9992 27.333 11.667 27.333 23.334s-7.1669 17.499-21.501 17.499c-3.8339 0.99921-7.1669 5.6669-9.8339 13.668 4.6677 15.666 12.501 23.332 23.502 23.332h7.8331c13.998 0 24.999-6.9992 33.165-21.333v-15.666c-9.4984-35.001-31.5-52.5-66.333-52.5-35.166 0-52.833 26.667-52.833 79.833 0 13.167 3.3331 33.999 9.8339 62.166-17.334 0-34.167-35.166-50.835-105.33l-39-93.666h-115.33l-1.8331 2.0008h-2.0008l70.335 197-2.0008 2.0008-19.5 3.8339c-26.667 0-42.333-13.002-46.833-39v-5.8346h-3.9992c-15.668 10.668-23.334 25.668-23.334 44.835v7.8331c4.5 40.5 24.666 60.666 60.498 60.666-9.1654 10.5-13.665 22.833-13.665 37.167 0 20.832 7.1669 35.832 21.501 44.832h3.8315c3 0 4.8331-7.1669 5.8346-21.333 12.498-30 28.665-45 48.834-45 49.498 118.5 95.832 240.83 138.67 367l1.9984 2.0008h127zm-66.501-140.5c-10.332-40.335-32.499-104.17-66.333-191.33l-9.8339-37.167h160.17l-81.999 228.5h-2.0008z"
        />
      </glyph
      >
      <glyph
          id="glyph11477"
          unicode="O"
          horiz-adv-x="766"
        >
        <path
            id="path11479"
            d="m409.5 680h39c108.33 0 195-45.666 259.83-136.83 35.166-57.832 52.665-119.17 52.665-183.67v-31.167c0-98.332-39-184.33-117.16-258-62.835-46.833-130.5-70.332-203.17-70.332h-25.335c-171.67 0-276.33 93.834-314.5 281.33h-11.667l-1.9984 1.9984c-35.168-4.1669-52.668-19.833-52.668-46.833h-3.9992c-14.334 11.334-21.501 24.333-21.501 39v13.668c5.8323 41.667 25.5 62.499 58.668 62.499-9.1677 10.833-13.668 23.835-13.668 39.168 4.5 27.333 13.668 40.998 27.333 40.998l13.668-46.833c1.6654 0 8.1662 22.167 19.5 66.333 36.498 98.001 90.498 163.83 162.16 197.33 49.833 20.832 93.999 31.332 132.83 31.332zm-114.83-226.83c0-46.165 29.334-72.832 87.834-79.998 16.665 0 34.833 5.1662 54.834 15.666-2.3339 9.3331-9.5008 22.5-21.501 39v7.8331c0 22.833 14.832 35.835 44.832 39 46.833-7.5 70.335-28.332 70.335-62.499 0-36.333-33.333-59.835-99.834-70.167 0.99921-3.9992 6.3331-5.8346 15.666-5.8346h9.8339c17.334 0 45.333 12.335 84.168 37.002l21.498 5.8323h3.8339c8.1662 0 17.166-1.8331 27.333-5.8323v-5.8346c0-32.499-30-48.832-89.832-48.832h-2.0008c-41.499 0-94.332 15.666-158.5 46.833-54.834 14.332-82.167 40.998-82.167 79.998l8.0008 56.667c-31.167-42.333-46.836-94.998-46.836-158.17v-23.334c0-42.333 9.6685-78.666 29.334-109.33 6.5008 17.667 33.168 35.334 79.833 52.998 21.501 5.1685 39 7.8354 52.668 7.8354h15.666c30 0 45-8.5016 45-25.5v-3.8339l-2.0008-13.668h-7.8331l-58.665 29.334h-9.6662v-2.0008c20.499 0 32.832-15 36.999-45.165-5.1662-28.833-16.833-43.167-35.001-43.167-19.665 0-29.499 8.4992-29.499 25.332 0 9.8339 2.0008 21.501 5.8323 35.168l-27.333 5.8323c-34.998-4.1669-52.5-19.833-52.5-46.833v-2.0008c0-22.665 28.002-47.332 84-73.998 26.334-11.667 56.334-17.502 89.835-17.502 70.165 0 125.5 36.501 166 109.34 20.832 44.166 31.167 89.166 31.167 134.67 0 99.333-37.002 173.5-110.84 222.5-31.665 15.666-62.166 23.499-91.833 23.499-55.665 0-99.333-31.165-130.83-93.666l-7.8331-37.167z"
        />
      </glyph
      >
      <glyph
          id="glyph11481"
          unicode="W"
          horiz-adv-x="913"
        >
        <path
            id="path11483"
            d="m25.833 656l2.0008 2.0008h119.17c4.1669 0 12-26.667 23.334-80.001 48.832 23.334 85.332 35.168 109.5 35.168 29.499 0 45.832-17.667 48.832-52.833 0-29.502-15.666-51-46.998-64.335h-5.8346c-18.832 0-29.832 12.333-33.165 36.999 0 14.334 9.1654 22.836 27.333 25.5 7.5-14.332 13.332-21.498 17.667-21.498h1.8331c17.001 2.4992 25.5 10.998 25.5 25.332-7.8331 24.666-21.501 37.167-41.001 37.167h-3.9992c-35.499 0-64.167-24.165-86.001-72.333 44.334-163.66 73.002-280.17 86.001-349.5h2.0008l140.66 480.33h113.17c3.9992 0 14.332-37.167 31.332-111.33l11.667-35.166h2.0008c45.165 23.499 77.832 35.166 97.665 35.166h13.668c28.665-6.1677 42.999-20.499 42.999-42.834v-6c-7.1669-45.498-24.168-68.332-50.832-68.332-16.335 0-26.667 11.166-31.335 33.333v1.8331c0 11.667 5.3339 20.832 15.666 27.333h4.0016c8.3315 0 14.332-5.8346 17.499-17.499l7.8331-2.0008h2.0008c15.498 1.3323 23.334 7.8331 23.334 19.5-5.5016 28.665-19.835 42.999-43.002 42.999h-3.8339c-32.499 0-61.165-24.666-85.998-74.166 23.499-83.334 46.998-175.83 70.332-277.33h2.0008c67.665 243.83 113.33 402 136.66 474.5h115.34l1.8331-2.0008h2.0008l-203.17-656h-113.17c-3.3331 0-18.999 54.666-46.998 164-24.668 81.498-50.001 182.33-76.167 302.83h-3.8339l-140.67-466.83h-113.17c-3.6661 0-21.168 60.501-52.833 181.5l-33.168 109.5c-50.832-3.9992-76.167-15.666-76.167-35.166-1.3323-17.001-3.3331-25.5-5.8323-25.5-22.167 11.166-33.168 28.665-33.168 52.833v9.6662c5.1685 37.833 20.168 56.667 44.835 56.667v2.0008c-15.666 5.8323-23.499 20.832-23.499 44.832 3.3331 23.499 7.8331 35.166 13.665 35.166 8.4992-8.4992 18.333-22.167 29.334-40.998 8.8323-6.5008 15.999-9.8339 21.501-9.8339 0 19.332-23.334 111-70.335 275.33z"
        />
      </glyph
      >
      <glyph
          id="glyph11485"
          unicode="C"
          horiz-adv-x="666"
        >
        <path
            id="path11487"
            d="m464.67 680h35.166c54.165 0 107.5-11.832 159.83-35.332v-1.8331l-27.333-88.167-5.8346-1.8331-19.5 7.6654 0.16772-1.8331c3.8315-21.168 5.8323-40.167 5.8323-56.667v-7.8331c0-31.332-12.999-52.167-39-62.499l-15.666-2.0008c-45.501 6.5008-68.334 22.833-68.334 48.834v5.8323c0 18.666 9.8339 31.002 29.334 37.167h7.8331c19.5-1.6654 29.166-11.334 29.166-29.334 0-6.4984-9-10.332-27.333-11.665l-1.8331-9.8339v-7.8331c2.1661-14.168 10.668-21.333 25.332-21.333h7.8354c24.666 5.8323 37.165 24 37.165 54.666v13.665c-6.6662 45.501-23.499 68.334-50.832 68.334l-64.5 5.8323c-111 0-189-44.832-233.67-134.66-14.334-33.501-21.498-68.001-21.498-103.5v-21.501c0-89.667 44.332-156.67 132.83-201 39.333-16.833 81.669-25.332 127-25.332 34.5 0 82.665 10.5 144.5 31.332 10.002-19.332 19.167-50.667 27.333-93.999-57-23.502-113-35.334-168-35.334h-39c-109.83 0-204.17 40.332-283.16 121.17-43.002 56.667-64.5 116.5-64.5 179.83v3.8339l-13.668 2.0008h-3.9992c-28.002 0-44.334-13.002-48.834-39.168v-5.8323h-2.0008c-16.833 10.833-25.332 24.498-25.332 40.998v11.835c4.1669 40.332 23.667 60.498 58.5 60.498h2.0008c-9.1677 10.835-13.668 24.501-13.668 41.001 0 21.501 8.4992 35.835 25.5 42.999l15.666-46.833 11.835-9.8315c4.8331 48.832 22.998 95.166 54.498 138.83 44.001 50.667 88.833 84.666 134.5 101.5 56.832 24.832 112.16 37.165 165.67 37.165z"
        />
      </glyph
      >
      <glyph
          id="glyph11489"
          unicode="N"
          horiz-adv-x="664"
        >
        <path
            id="path11491"
            d="m115 662h107c42.999-47.499 88.665-110.66 137-189.5l58.665-74.166 27.333-3.8339h2.0008c34.833 0 59.499 12.999 74.166 39l3.9992 21.501c-3.6661 22.165-12.832 33.165-27.333 33.165-13.167-1.6654-19.665-4.1669-19.665-7.8331l1.9984-33.168c-2.6646 0-3.8315-1.9984-3.8315-5.8323l-2.0008-2.0008h-3.9992c-24.668 0-37.002 8.5016-37.002 25.5v13.668c0 16.5 13.668 27 41.001 31.167 41.667-6.5008 62.499-22.833 62.499-48.834v-17.499c0-32.001-32.499-57.333-97.665-76.167v-2.0008c46.833-75.165 84-132.5 111.83-171.83l-0.16535 2.0008c-3.8339 63.333-5.8346 124-5.8346 181.5v281.17l3.8339 3.9992h105.33l3.8339-3.8315v-652.17l-2.0008-2.0008v-1.9984l-1.9984 1.9984h-7.8331l-68.334-3.9992h-11.835c-23.665 0-58.998 41.667-105.5 125-69.168 94.998-148.5 214.16-238.5 357.33h-2.0008v-476.33l-3.8339-3.9992h-101.33l-3.8339 3.8315v294.83l-23.499 3.9992c-33.834 0-50.835-15-50.835-45l-1.9984-1.8331h-1.8354c-6.8315 0-14.665 13.668-23.499 41.001v29.166c0 13.5 12.999 26.502 39 39.168 6.8339 3.8339 14.667 5.8323 23.499 5.8323-9.1654 10.002-13.665 19.833-13.665 29.334v13.668c0 17.832 5.8323 30.832 17.667 39h1.8331c5.0008 0 10.833-14.334 17.667-43.002 5.4992-6.4984 9.3331-9.6662 11.667-9.6662l3.9992 101.5v7.8331l-2.0008 125c1.0016 16.833 3 25.332 6 25.332z"
        />
      </glyph
      >
      <glyph
          id="glyph11493"
          unicode="K"
          horiz-adv-x="648"
        >
        <path
            id="path11495"
            d="m116 656l1.9984 2.0008h111.17l3.8339-3.9992v-269.33l249.83 273.33h136.67l3.9992-3.9992v-5.8346l-254-271.33c6.4984-13.668 13.665-23.499 21.498-29.334v9.8339c0 43.332 32.502 74.499 97.5 93.666l25.5 2.0008h5.8346c39-4.8331 58.5-20.499 58.5-46.833-5.8346-33.834-19.5-50.835-41.001-50.835-17.166 0-30.168 18.333-39 54.668-4.8331 7.8331-12 11.832-21.501 11.832h-1.9984c-23.334 0-39-20.832-46.833-62.499v-13.668c0-46.665 14.332-82.332 42.999-107.5 58.5-74.166 115.83-152.84 171.83-236.17l-2.0008-2.0008h-128.84c-45.333 51.501-120.67 151.83-226.33 300.83-28.332-27-45.834-45.168-52.665-54.668l-0.16772-242.17-3.8339-3.9992h-109.17l-3.8315 3.8339v285.17c0 2.8346-9.1677 5.5016-27.501 7.8331-33.999-3.9992-51-16.998-51-39.165v-5.8346h-3.9992c-15.501 10.833-23.334 25.833-23.334 45v11.667c9.1654 37.833 26.667 56.667 52.665 56.667l7.8354-2.0008c-9.1677 12.335-13.668 26.667-13.668 43.002 0 19.167 7.1669 32.832 21.666 40.998h5.8346c8.4992-39.165 18.333-58.665 29.499-58.665l3.9992 91.833-1.9984 175.66z"
        />
      </glyph
      >
      <glyph
          id="glyph11497"
          unicode="E"
          horiz-adv-x="555"
        >
        <path
            id="path11499"
            d="m134.83 658h398.5l3.8315-3.9992v-88.002l-3.8315-3.9992h-281.33v-137.83c16.332-19.5 37.833-29.166 64.5-29.166 57.333 7.1646 86.001 27.333 86.001 60.498-4.6677 23.502-13.002 35.166-25.5 35.166h-5.8346c-11.667 0-17.499-14.332-17.499-42.999-3.6661-5.1662-6.8339-7.6654-9.8339-7.6654-19.833 0-31.5 10.332-35.166 31.165v3.8339c0 21.168 12.999 33.666 39.165 37.167 44.168-9.1677 66.333-25.332 66.333-48.834v-19.5c0-9.8315-12.999-27.333-39-52.833h140.5l3.9992-3.9992v-87.999l-3.9992-4.0016h-261.67l-3.8339-62.334 3.8339-132.67c22.165-2.6669 54-3.9992 95.665-3.9992h195.33l4.0016-3.9992v-88.002l-4.0016-3.9992h-410.17l-3.8315 3.8339v281.5c0 4.5-14.334 8.3339-43.002 11.667-33.832 0-50.667-15-50.667-45h-3.9992c-15.666 10.833-23.499 25.833-23.499 45v11.832c8.1662 37.833 27.165 56.667 56.667 56.667l5.8323-1.9984c-7.6654 6.4984-12.999 19.5-15.501 39 0 21.498 6.5008 36.498 19.5 45 2.8346-1.3346 12-18.834 27.336-52.668 7.1646-6.5008 15-9.8339 23.499-9.8339l3.8339 99.501v169.66l3.8315 3.8339z"
        />
      </glyph
      >
      <glyph
          id="glyph11501"
          unicode="S"
          horiz-adv-x="538"
        >
        <path
            id="path11503"
            d="m339.5 678h19.665c48.168 0 97.668-12.333 148.5-37.167v-2.0008c-16.167-49.665-28.665-80.334-36.999-91.998l-17.667 9.6662v-2.0008c6.5008-12.333 9.8339-24 9.8339-35.166v-3.8339c-7.1669-32.499-27.501-48.834-60.669-48.834-35.332 5.5016-52.998 18.501-52.998 39v15.668c0 15.666 9.8339 23.499 29.499 23.499h1.8331c17.001-1.6677 25.5-8.1662 25.5-19.5-0.33307-3.6661-6.8339-10.167-19.5-19.668v-5.8323c4.8331-10.668 12-18.501 21.501-23.334 26.166 4.8331 39.165 23.667 39.165 56.499 0 25.836-17.665 40.836-52.833 45l-51 4.0016h-5.8323c-66.666 0-105.83-21.501-117.5-64.5l-1.9984-11.667c0-54 54.832-96.333 164.33-127 56.502-21.501 96.168-47.502 119.33-78 20.832-31.668 31.332-61.002 31.332-88.002v-25.332c0-81-51.999-139.67-156.16-175.83-32.166-7.8331-61.5-11.667-87.834-11.667h-25.332c-64.167 0-124 16.332-179.67 48.999l29.166 93.834c54.501-26.001 91.5-39 111.33-39 11.835-3.9992 32.667-6.5008 62.502-7.8331 56.665 0 95.665 17.001 117.16 50.832 6.5008 16.167 9.8339 29.168 9.8339 39v5.8346c0 41.667-24.168 72.333-72.501 91.833-5.1662 2.6669-12.333 3.8339-21.498 3.8339h-11.835c-31.665 0-53.832-18.168-66.501-54.668l-1.9984-11.665c0-26.001 11.832-43.002 35.334-50.835h7.8331c9.6662 0 16.332 5.3339 19.5 15.666 0 6.1677-7.1669 12.668-21.501 19.5l-2.0008 9.8339c5.8346 7.8331 14.334 11.667 25.5 11.667h3.8339c13.5 0 21.333-9.1677 23.499-27.333v-3.8339c0-22.5-15-36.165-45-40.998-32.499 0-51.498 20.832-56.665 62.499v17.499c0 28.335 10.332 53.001 31.165 74.166v2.0008c-54.999 17.166-105.83 54.999-152.5 113.33h-1.8331c-44.334 0-66.501-17.001-66.501-50.835v-1.9984c-14.332 0-24.832 14.332-31.332 42.999v15.666c0 33.501 17.001 53.667 50.832 60.501-12.498 12-18.999 24.999-19.5 39 0 16.998 7.0016 30.666 21.335 40.998h3.9992c10.167-34.998 20.499-52.665 31.332-52.665 0 36.501 24.168 74.166 72.333 113.33 49.833 31.167 106.67 46.833 170.17 46.833z"
        />
      </glyph
      >
      <glyph
          id="glyph11505"
          unicode="P"
          horiz-adv-x="578"
        >
        <path
            id="path11507"
            d="m300.5 662c149.66 0 238.83-48.165 267.5-144.5 3.9992-13.002 6-27.999 6-45v-21.501c0-97.332-59.334-161.67-177.83-193.33-33.498-7.8331-68.665-11.667-105.5-11.667h-56.667v-242.17l-3.8339-3.8339h-109.33l-3.8339 3.9992v261.83l-27.501 5.8323c-36.333-4.6654-54.666-18.832-54.666-42.999v-3.8339h-1.8331c-15.666 10.668-23.499 23.667-23.499 39v13.668c0 29.001 13.665 49.167 40.998 60.501l17.502 1.9984c-7.6677 8.1662-11.667 19.167-11.667 33.168v15.666c0 12.666 7.8331 23.667 23.499 33.168 3.5008-4.3346 8.1662-18 13.668-41.001 5.8323-10.5 12.333-15.666 19.5-15.666h1.9984l4.0016 101.5-2.0008 35.166v144.33c0 4.3346 41.667 9.5008 125 15.666h58.5zm-66.501-96v-206.33c10.5-9.1677 26.667-13.668 48.834-13.668 39.165 0 66.666 16.335 82.167 48.834l1.9984 9.8339c-3.1654 23.334-12.333 35.166-27.333 35.166h-3.9992c-11.667 0-17.502-3.3331-17.502-9.8339l1.8354-27.333c-2.5016-7.8331-9.6685-11.667-21.501-11.667-16.833 5.5016-25.335 14.502-25.335 27.333v11.667c0 17.166 13.668 27 41.001 29.334h7.8331c25.833 0 44.667-15.666 56.835-47.001 0-19.833-10.5-40.665-31.335-62.499v-5.8323c30.333 0 59.667 17.499 88.002 52.665 14.332 23.001 21.498 45 21.498 66.168 0 44.166-22.833 75.333-68.499 93.498-23.835 7.8331-53.166 11.667-87.999 11.667h-3.8339l-62.667-2.0008z"
        />
      </glyph
      >
      </font>
</defs>
</svg>
