<svg xmlns="http://www.w3.org/2000/svg">
<defs>
<font
       id="FontID1"
       horiz-adv-x="720"
       font-variant="normal"
       font-weight="400"
       horiz-origin-x="0"
       horiz-origin-y="0"
       vert-origin-x="45"
       vert-origin-y="90"
       vert-adv-y="90"
       style="font-variant:normal;font-weight:400"><font-face
         font-family="Bookman-Demi"
         id="font-face9283" /><missing-glyph
         id="missing-glyph9285"><path
           d="M0 0z"
           id="path9287" /></missing-glyph><glyph
         unicode="3"
         horiz-adv-x="660"
         id="glyph9289"><path
           d="M237.833 323.001l0 88.9992 33.1668 0c42.8348,0 74.335,6.66614 94.1661,20.0018 13.3357,8.66394 23.6662,20.8317 31.3329,36.1652 7.66675,15.3335 11.5018,31.1656 11.5018,47.3323 0,30.1684 -9.66796,52.6666 -29.0005,67.3342 -19.3325,14.8349 -44.3339,22.167 -74.8336,22.167 -27.9998,0 -53.0013,-8.83469 -75.1683,-26.668 -10.6651,-8.83127 -16.1668,-16.6654 -16.1668,-23.8335 0,-1.99779 3.00181,-8.83127 8.66735,-20.5004 5.66895,-11.6658 8.50002,-23.4988 8.50002,-35.4993 0,-21.9996 -8.66735,-39.6656 -25.8313,-52.834 -17.3347,-13.3323 -37.6678,-19.9984 -61.1666,-19.9984 -25.0015,0 -45.3346,8.33268 -60.8354,25.1654 -15.4974,16.6688 -23.1642,38.1664 -23.1642,64.1685 0,28.3311 7.99801,54.1658 24.1648,77.5007 16.1668,23.4988 37.3331,43.166 63.6664,59.1654 25.5,15.8321 54.5005,27.6652 87.1687,35.168 32.6648,7.49941 65.333,11.1637 97.8304,11.1637 32.0023,0 63.1679,-3.49699 93.5002,-10.6651 30.4997,-7.16815 58.8342,-18.3319 85.3348,-33.3341 26.3333,-14.8315 47.4997,-34.4987 63.3318,-58.8342 16.0028,-24.1648 24.0008,-52.9979 24.0008,-86.4994 0,-29.9976 -11.3345,-58.1648 -33.8327,-84.4981 -22.6656,-26.3333 -49.1662,-43.8354 -79.3346,-52.168l0 -1.99779c19.1686,-3.33649 37.8351,-9.50062 55.9997,-18.5026 18.0006,-9.16595 33.8361,-20.6644 47.3358,-34.4987 13.667,-13.8343 24.1648,-29.499 31.6642,-46.8338 7.50283,-17.3347 11.1672,-36.8345 11.1672,-58.3322 0,-35.8339 -9.50062,-69.1681 -28.3311,-100.002 -18.8339,-30.8309 -43.8354,-55.4977 -74.6663,-73.6657 -20.3365,-12.0004 -42.8348,-22.167 -68.0001,-30.4997 -25.0015,-8.33268 -50.6688,-14.5002 -76.6675,-18.4992 -26.0021,-4.16634 -51.1674,-6.16755 -75.1683,-6.16755 -30.3323,0 -59.9987,2.9984 -88.9992,8.83469 -29.0005,5.83288 -55.3338,14.6641 -79.1673,26.3333 -18.8339,8.99861 -35.9979,20.3331 -51.666,33.8327 -15.6682,13.4996 -28.1672,29.0005 -37.3331,46.3317 -9.33328,17.502 -14.0016,36.1686 -14.0016,56.3344 0,25.0015 8.00142,46.4991 24.0008,64.3324 15.8355,18.0006 36.3325,26.8353 60.9993,26.8353 14.3363,0 28.1672,-3.00181 41.5029,-9.16936 13.3323,-6.16413 24.1648,-14.9988 32.3335,-26.6646 8.16534,-11.5018 12.1643,-25.0015 12.1643,-40.1676 0,-7.49941 -1.99779,-16.1668 -5.83288,-25.9986 -2.66714,-6.50222 -3.999,-11.8331 -3.999,-15.9994 0,-8.83469 5.66554,-17.502 16.6654,-26.0021 21.1664,-16.498 49.8322,-24.8341 85.8334,-24.8341 40.0003,0 71.9991,10.5012 95.6687,31.6676 23.8301,21.1664 35.6666,51.666 35.6666,91.335 0,12.6664 -1.66995,25.3327 -4.83569,38.1664 -3.33307,12.6664 -8.50002,24.6668 -15.6648,35.9979 -7.16815,11.5018 -15.3335,20.1692 -24.3355,26.5007 -13.3323,9.00203 -29.9976,15.3335 -49.8322,19.0012 -19.8345,3.50041 -41.0009,5.33087 -63.3318,5.33087l-22.0031 0 -14.1656 -1.99779z"
           id="path9291" /></glyph><glyph
         unicode="Đ"
         horiz-adv-x="779"
         id="glyph9293"><path
           d="M430 412l0 -93.9988 -148.001 0 0 -171.834c0,-24.0008 3.66774,-38.6684 10.8325,-43.8319 10.3339,-6.83348 29.3351,-10.3339 57.0003,-10.3339 34.8333,0 65.5003,6.33147 91.8336,19.1652 26.3333,12.8337 47.8344,30.8343 64.4997,53.6672 16.6688,22.8329 28.8331,49.5009 36.8345,79.6659 7.99801,30.1684 12.0004,62.8332 12.0004,98.0012 0,76.3328 -15.8355,135.167 -47.3358,176.834 -34.4987,45.8331 -84.8328,68.6661 -150.999,68.6661 -21.9996,0 -38.1664,-1.16794 -47.9983,-3.66774 -10.0026,-2.33247 -16.8327,-7.99801 -20.8351,-16.498 -3.83167,-8.66735 -5.83288,-23.1676 -5.83288,-43.5007l0 -112.334 148.001 0zm-410.002 -412l0 82.1657c28.0033,2.00121 47.667,6.00021 59.1688,12.3351 11.3311,6.16755 18.4992,14.9988 21.501,26.5007 2.83106,11.6658 4.33026,31.3329 4.33026,59.3328l0 137.667 -85.0002 0 0 93.9988 85.0002 0 0 88.5006c0,27.3339 -1.33186,46.6664 -4.16634,58.1648 -2.66714,11.5018 -9.99921,20.5004 -21.665,26.8353 -11.8331,6.33147 -31.5003,10.5012 -59.1688,12.8337l0 82.6643 309.002 0c94.6647,0 159.666,-4.99961 194.831,-15.1662 29.8337,-8.16534 59.5001,-23.1642 88.8352,-44.6652 29.3317,-21.6684 53.4999,-46.1678 72.3338,-73.5017 20.8317,-28.997 36.4999,-61.1666 47.165,-96.6659 10.5012,-35.4993 15.8355,-72.4977 15.8355,-111.333 0,-111.501 -36.3359,-199.499 -108.834,-263.5 -19.8345,-17.3313 -41.1682,-31.3329 -63.8338,-41.9981 -22.5016,-10.6686 -45.1672,-18.3353 -68.0001,-23.0002 -22.8329,-4.50101 -47.0011,-7.49941 -72.5011,-9.00203 -25.6674,-1.4992 -52.834,-2.16513 -81.831,-2.16513l-333.003 0z"
           id="path9295" /></glyph><glyph
         unicode="0"
         horiz-adv-x="660"
         id="glyph9297"><path
           d="M341.834 697.998c49.8322,0 93.3328,-9.66454 130.833,-28.997 37.3331,-19.3359 68.3314,-45.6692 92.8308,-78.6687 24.6668,-32.9995 43.0021,-70.9985 55.1664,-114.165 12.1678,-43.1694 18.3353,-88.1693 18.3353,-135.334 0,-48.5003 -6.16755,-94.3334 -18.4992,-137.168 -12.3351,-42.9987 -31.3329,-81.1651 -56.669,-114.499 -25.3327,-33.3341 -57.1642,-59.3328 -95.3306,-78.1667 -38.3337,-18.6666 -82.5004,-27.9998 -132.5,-27.9998 -99.0018,0 -174.669,32.9995 -227.168,98.8344 -52.4993,65.8316 -78.8326,149.667 -78.8326,251.165 0,49.3336 6.49881,96.3346 19.3325,141 12.8337,44.5013 31.9989,83.6683 57.8336,117.166 25.6674,33.5015 58.3322,59.6674 97.8338,78.5013 39.4983,18.8339 85.1641,28.3311 136.834,28.3311zm-7.83408 -621c33.8327,0 59.5001,15.6682 76.9987,46.8338 17.666,31.3329 29.0005,66.6683 34.1674,105.999 5.16694,39.5017 7.83408,78.1667 7.83408,116.336 0,26.9992 -1.4992,53.9985 -4.33368,80.8304 -3.00181,26.8353 -8.33268,53.8346 -16.1668,80.8338 -7.83408,27.0027 -19.8345,49.8356 -36.0013,68.3348 -16.3307,18.4992 -37.1658,27.8325 -62.4985,27.8325 -33.1668,0 -58.4995,-15.1662 -75.8342,-45.6658 -17.3313,-30.4997 -28.8331,-65.1656 -34.1674,-104.001 -5.33087,-38.9997 -7.99801,-77.1661 -7.99801,-114.499 0,-63.4991 7.83408,-123.167 23.6662,-178.999 15.6648,-55.8358 47.165,-83.8356 94.3334,-83.8356z"
           id="path9299" /></glyph><glyph
         unicode="8"
         horiz-adv-x="660"
         id="glyph9301"><path
           d="M143.001 640.001c48.5003,38.665 112.833,57.9975 193.001,57.9975 29.6664,0 59.3328,-3.16573 89.1665,-9.33328 29.8303,-6.16413 57.4989,-16.3307 82.9989,-30.4997 25.6674,-14.1656 46.1678,-32.6648 61.6652,-55.3338 15.5008,-22.8329 23.1676,-50.1634 23.1676,-81.9983 0,-30.0011 -8.66735,-56.833 -25.8347,-80.3318 -17.3313,-23.6696 -39.9969,-43.0021 -68.0001,-57.8336 43.3333,-16.3341 76.5001,-37.8351 99.5004,-64.6671 22.8329,-26.8353 34.3347,-62.3346 34.3347,-106.167 0,-35.5027 -8.66735,-68.3348 -26.3333,-98.4998 -17.4986,-30.3357 -42.0015,-55.6684 -73.3344,-76.1689 -26.9992,-17.8333 -59.6674,-31.3329 -97.8338,-40.4989 -38.3303,-9.16595 -75.3322,-13.667 -111.166,-13.667 -22.167,0 -43.9993,1.33186 -65.6642,3.999 -21.6684,2.4998 -42.8348,6.83348 -63.8338,13.001 -20.8351,6.00021 -38.9997,13.4996 -54.6678,22.3343 -31.6676,17.3313 -56.833,39.4983 -75.8342,66.4975 -18.8339,27.1666 -28.3311,57.335 -28.3311,90.5018 0,25.9986 5.16694,49.5009 15.3335,70.1653 10.3305,20.8351 24.6668,38.6684 42.8313,53.4999 18.3353,14.6676 39.6656,26.668 64.1685,35.8339 -30.0011,14.0016 -53.336,33.5015 -69.6667,58.4995 -16.5014,25.0015 -24.8341,53.8346 -24.8341,86.5028 0,60.832 26.5007,112.833 79.1673,156.166zm195.999 -198.502l51.1674 -21.9996c22.167,13.667 39.6656,27.8325 52.4993,42.3327 12.8337,14.6676 19.3325,32.1696 19.3325,52.6666 0,20.5004 -6.16755,37.5005 -18.3319,51.3348 -12.1678,13.8343 -27.3339,23.8335 -45.6658,30.0011 -18.168,6.16413 -37.8351,9.16595 -59.0015,9.16595 -44.9999,0 -77.1661,-10.5012 -96.6659,-31.6676 -11.3345,-13.667 -17.1674,-27.9998 -17.1674,-43.3333 0,-10.9998 3.83167,-20.8317 11.3345,-29.6664 7.49941,-8.66735 17.4986,-17 30.165,-24.4994 12.6664,-7.66675 25.3327,-14.1656 37.6678,-19.4998 12.3317,-5.33428 23.8335,-10.3339 34.666,-14.8349zm14.1656 -179.166l-96.1639 33.6688c-25.8347,-9.16936 -46.3352,-23.0002 -61.836,-41.8341 -15.4974,-18.8339 -23.1642,-41.3356 -23.1642,-67.6689 0,-26.6646 7.49941,-48.1656 22.6656,-64.4997 15.1662,-16.3307 34.666,-28.1638 58.6668,-35.3319 23.8335,-7.16815 48.8315,-10.6651 74.8336,-10.6651 36.4999,0 69.9979,7.16474 100.334,21.665 30.4997,14.5002 45.6658,37.6678 45.6658,69.834 0,24.0008 -11.5018,42.8313 -34.3347,56.6656 -23.0002,13.8343 -51.8334,26.5007 -86.6667,38.1664z"
           id="path9303" /></glyph><glyph
         unicode="2"
         horiz-adv-x="660"
         id="glyph9305"><path
           d="M627.666 216.499l-60.9993 -216.499 -508.498 0 -17.1674 111.668 10.8325 7.33207c49.3336,32.1662 91.0004,60.166 124.666,83.8322 33.6688,23.8335 67.5015,51.5021 101.502,83.501 34.1674,31.8349 61.9999,66.3336 83.9995,103.834 21.9996,37.3331 32.9995,76.3328 32.9995,116.999 0,32.5009 -9.99921,57.4989 -30.0011,75.3322 -19.9984,17.6694 -46.3317,26.5007 -78.8326,26.5007 -10.3339,0 -23.8335,-2.4998 -40.4989,-7.33207 -16.6688,-4.83227 -30.4997,-11.6658 -41.6668,-20.5004 -11.3345,-8.66735 -16.8327,-19.1652 -16.8327,-31.1656 0,-8.50002 3.999,-18.3353 12.1643,-29.6664 9.16936,-14.6676 13.667,-29.3351 13.667,-44.0027 0,-14.1656 -3.999,-27.1666 -12.0004,-38.9997 -7.99801,-11.6658 -18.1646,-20.6644 -30.6636,-27.1666 -12.6698,-6.49881 -26.0021,-9.83188 -40.3349,-9.83188 -20.5004,0 -40.6662,7.66675 -60.166,23.0002 -18.4992,16.8327 -27.8325,41.3321 -27.8325,73.1671 0,59.664 29.3317,109.998 87.8312,151.166 48.1656,33.4981 110.169,50.3307 186,50.3307 34.1674,0 67.5015,-3.999 100.334,-11.997 32.6682,-8.00142 62.5019,-20.3331 89.5012,-37.0019 26.9992,-16.8327 48.5003,-38.3337 64.4997,-64.6671 15.8321,-26.5007 23.8335,-57.8336 23.8335,-94.3334 0,-41.6668 -11.3345,-78.6653 -34.1674,-111.333 -22.6656,-32.4974 -53.8346,-64.6671 -93.1655,-96.6659 -32.5009,-26.9992 -67.1669,-51.666 -103.834,-73.833 -36.8345,-22.3343 -76.9987,-44.9999 -120.499,-68.1675l112.665 0 43.8354 0c26.9992,0 48.8315,2.00121 65.1656,5.83288 16.498,4.00242 30.9982,12.6664 43.6646,26.3333 12.6698,13.667 25.6674,35.8339 39.0031,66.5009l80.9977 -22.167z"
           id="path9307" /></glyph><glyph
         unicode="T"
         horiz-adv-x="700"
         id="glyph9309"><path
           d="M261.001 180l0 385.168c0,10.3339 -0.833268,17 -2.66714,19.6672 -1.83387,2.83106 -7.16815,4.16634 -16.3341,4.16634 -33.4981,0 -67.8328,-16.1668 -103.001,-48.5003 -11.6658,-10.3339 -22.3309,-22.3343 -31.9989,-35.6666 -9.50062,-13.4996 -22.3343,-33.5015 -38.1664,-60.0021l-72.6651 29.3351 79.9971 206.831 546.668 0 80.1679 -206.831 -73.3344 -29.3351c-12.3351,21.0024 -23.8335,39.5017 -34.8333,55.3338 -10.8325,15.8355 -22.5016,29.3351 -34.8333,40.3349 -35.168,32.3335 -69.4993,48.5003 -103.001,48.5003 -8.99861,0 -14.5002,-1.33528 -16.3341,-4.16634 -1.83387,-2.66714 -2.66714,-9.33328 -2.66714,-19.6672l0 -385.168c0,-38.1664 3.66774,-62.4985 11.1672,-73.1671 6.50222,-8.83127 16.3341,-14.9988 29.3351,-18.4992 13.001,-3.66774 26.8319,-5.83288 41.4995,-6.49881l12.1678 0 0 -81.8344 -365.333 0 0 81.8344 12.1643 0c36.1686,1.66654 59.6674,9.99921 70.8346,24.998 7.49941,10.6686 11.1672,35.0007 11.1672,73.1671z"
           id="path9311" /></glyph><glyph
         unicode=":"
         horiz-adv-x="339"
         id="glyph9313"><path
           d="M165.001 172.002c18.0006,0 34.0001,-3.83508 47.9983,-11.5018 14.0016,-7.66675 25.0015,-18.4992 32.9995,-32.5009 8.00142,-13.9982 12.0004,-29.6664 12.0004,-46.9977 0,-23.5023 -8.99861,-44.1666 -26.8319,-62.1672 -18.0006,-17.8333 -38.6684,-26.8353 -62.1672,-26.8353 -17,0 -32.5009,3.83508 -46.4991,11.5018 -14.0016,7.66675 -25.3327,18.4992 -33.8327,32.5009 -8.50002,13.9982 -12.6664,29.3317 -12.6664,45.9971 0,24.1682 8.66394,45.1672 25.9986,63.1679 17.1674,17.8333 38.3337,26.8353 63.0005,26.8353zm0 342.999c18.0006,0 34.0001,-3.83508 47.9983,-11.5018 14.0016,-7.66675 25.0015,-18.3319 32.9995,-32.1662 8.00142,-13.8309 12.0004,-29.6664 12.0004,-47.4997 0,-23.4988 -8.99861,-44.1666 -26.8319,-61.9999 -18.0006,-17.8333 -38.6684,-26.8319 -62.1672,-26.8319 -15.9994,0 -31.3329,3.83167 -45.8331,11.6658 -14.5002,7.83408 -25.9986,18.6666 -34.4987,32.6682 -8.50002,13.9982 -12.6664,29.1644 -12.6664,45.4985 0,24.3321 8.66394,45.4985 25.9986,63.3318 17.1674,17.8333 38.3337,26.8353 63.0005,26.8353z"
           id="path9315" /></glyph><glyph
         unicode="7"
         horiz-adv-x="660"
         id="glyph9317"><path
           d="M618.333 680.998l13.667 -104.999c-36.1652,-28.3345 -76.8314,-78.334 -122.166,-150.333 -44.8325,-70.9985 -80.0005,-140.833 -105.501,-209.833 -25.3327,-69.0007 -37.9991,-141 -37.9991,-215.833l-203.334 0c5.50162,85.6661 44.1666,185.166 115.834,298.832 58.8342,91.0004 130.666,176.834 215.331,257.169l-236.33 0c-28.6692,0 -49.5009,-0.669346 -62.5019,-2.00121 -13.1649,-1.33186 -24.3321,-4.66835 -33.4981,-10.1666 -9.33328,-5.50162 -17.6694,-14.1656 -25.0015,-25.8347 -7.33207,-11.8331 -17,-31.1656 -29.0005,-58.1648l-71.8318 11.1672 32.6648 209.997 549.667 0z"
           id="path9319" /></glyph><glyph
         unicode="4"
         horiz-adv-x="660"
         id="glyph9321"><path
           d="M504.001 680.998l0 -412.997 144.832 0 -41.9981 -98.0012 -102.833 0 0 -18.0006c0,-14.6676 1.0006,-26.5007 3.16573,-35.168 2.16855,-8.83127 7.66675,-15.9994 16.8327,-21.4976 11.1672,-6.83348 29.1678,-10.9998 54.1658,-12.3351l10.8359 -1.0006 0 -81.9983 -333.833 0 0 81.9983 9.16595 0c23.1676,1.33528 40.0003,4.66835 50.8328,9.83529 11.6658,5.4982 19.1652,12.6664 22.167,21.501 3.16573,8.83127 4.66493,21.665 4.66493,38.665l0 18.0006 -286.832 0 -36.1652 72.1665 327.331 438.832 157.669 0zm-162.002 -413.998l0 257.832 -183.831 -257.832 183.831 0z"
           id="path9323" /></glyph><glyph
         unicode=" "
         horiz-adv-x="339"
         id="glyph9325" /><glyph
         unicode="9"
         horiz-adv-x="660"
         id="glyph9327"><path
           d="M459.667 285.999c-21.6684,-19.1652 -49.1662,-33.4981 -82.1657,-42.8313 -32.9995,-9.50062 -66.6683,-14.169 -100.836,-14.169 -45.3311,0 -86.4994,9.16936 -123.498,27.3339 -37.1692,18.168 -66.5009,44.5013 -88.002,78.9999 -21.4976,34.5021 -32.1662,74.6663 -32.1662,120.667 0,51.0001 14.3329,94.9994 43.166,131.667 28.8331,36.8345 66.1663,64.3358 112.167,82.835 45.8331,18.3319 93.6675,27.4978 143.5,27.4978 29.6698,0 59.0015,-3.49699 88.3332,-10.6651 29.3351,-7.16815 56.669,-18.4992 82.0018,-34.0001 25.5,-15.5008 47.165,-34.4987 65.5003,-57.3316 16.3341,-19.8345 29.6664,-43.668 40.0003,-71.5005 10.4978,-27.8359 17.8333,-56.669 21.9996,-86.3354 4.16634,-29.8337 6.33147,-58.4995 6.33147,-86.1647 0,-119.502 -28.4984,-209.335 -85.4987,-270.003 -21.1664,-22.3309 -45.1672,-40.9975 -72.1665,-55.8324 -26.9992,-14.8315 -55.8324,-25.6674 -86.1681,-32.6648 -30.4997,-7.00082 -61.6652,-10.5012 -93.5002,-10.5012 -31.6642,0 -65.4969,4.50101 -101.833,13.667 -36.3325,9.16595 -67.3308,23.8335 -93.3328,44.3339 -25.8313,20.5004 -38.665,46.6664 -38.665,78.1667 0,21.4976 7.83067,39.6656 23.3315,54.5005 15.6682,14.6641 34.3347,22.167 55.6684,22.167 25.5,0 44.6652,-7.16815 57.4989,-21.6684 12.8337,-14.3329 22.3343,-35.0007 28.4984,-61.8326 2.66714,-11.6658 6.66956,-19.1686 12.3351,-22.8329 14.3329,-9.66796 34.8333,-14.5002 61.8326,-14.5002 52.168,0 91.1677,21.1664 116.999,63.4991 25.8347,42.3327 38.6684,91.499 38.6684,147.499zm-131.667 317c-26.9992,0 -49.6682,-6.16413 -68.1675,-18.4992 -18.3319,-12.499 -31.8315,-29.3317 -40.6662,-50.6654 -8.83469,-21.3337 -13.1649,-44.9999 -13.1649,-71.0019 0,-37.8317 9.99921,-69.4993 29.9976,-95.1667 20.0018,-25.8313 48.5003,-38.665 85.6661,-38.665 27.0027,0 50.1668,5.83288 69.5027,17.3313 19.3325,11.5018 33.8327,27.8359 43.4973,48.835 9.50062,20.999 14.3363,44.8325 14.3363,71.5005 0,26.5007 -4.50101,49.8322 -13.503,70.3326 -8.83127,20.5004 -22.4982,36.6672 -40.6662,48.333 -18.1646,11.8331 -40.4989,17.666 -66.8322,17.666z"
           id="path9329" /></glyph><glyph
         unicode="6"
         horiz-adv-x="660"
         id="glyph9331"><path
           d="M204.332 392.001c46.1678,37.3331 108.834,55.9997 188.001,55.9997 43.0021,0 83.1663,-9.16936 120.499,-27.5013 37.5005,-18.4992 67.0029,-44.5013 88.6679,-78.334 21.6684,-33.8327 32.5009,-72.8324 32.5009,-117.166 0,-52.9979 -13.4996,-97.8338 -40.5023,-134.334 -27.1666,-36.6672 -62.9971,-63.6664 -107.498,-81.3324 -44.6652,-17.4986 -93.0016,-26.3333 -145.166,-26.3333 -103.834,0 -181,30.0011 -231.334,89.8324 -50.3342,59.8348 -75.4995,142.502 -75.4995,247.836 0,73.331 11.6658,138.333 35.0007,194.998 23.1676,56.833 59.3328,101.334 108.164,133.835 48.835,32.3301 110.336,48.4969 184.668,48.4969 27.3339,0 56.3344,-3.33307 86.6667,-9.99921 30.4997,-6.66614 57.0003,-16.3341 79.502,-29.0005 49.4975,-27.3305 74.1643,-61.1666 74.1643,-101.167 0,-22.4982 -8.16534,-40.6662 -24.3321,-54.8318 -16.3341,-14.1656 -35.4993,-21.3337 -57.6662,-21.3337 -21.501,0 -39.8329,6.66614 -54.8352,20.0018 -14.9988,13.1649 -23.4988,30.165 -25.3327,51.0001 -2.00121,17.8333 -4.66493,29.3317 -7.83408,34.4987 -10.8325,15.1662 -31.1656,22.8329 -60.9993,22.8329 -36.8345,0 -67.4981,-10.5012 -92.001,-31.6676 -24.4994,-20.999 -42.8313,-48.333 -54.6644,-81.6671 -11.8331,-33.4981 -18.6666,-68.3314 -20.1692,-104.664zm129.669 -314.002c28.3345,0 51.4987,6.00021 69.4993,17.8333 18.168,11.8331 31.3329,28.1672 39.8329,48.835 8.50002,20.6644 12.6664,44.6652 12.6664,71.9991 0,25.6674 -4.16634,48.5003 -12.6664,68.3348 -8.50002,19.8311 -21.3337,35.6666 -38.4977,47.4997 -17.3347,11.6658 -38.5011,17.4986 -64.0011,17.4986 -26.9992,0 -49.6682,-6.00021 -68.0001,-17.8333 -18.3353,-11.8331 -32.3335,-27.9998 -41.6668,-48.333 -9.50062,-20.3331 -14.1656,-43.9993 -14.1656,-71.0019 0,-40.1642 9.66454,-72.4977 28.997,-97.4992 19.3359,-24.8341 48.6676,-37.3331 88.002,-37.3331z"
           id="path9333" /></glyph></font><font
       id="FontID0"
       horiz-adv-x="722"
       font-variant="normal"
       font-style="normal"
       font-weight="400,700"
       horiz-origin-x="0"
       horiz-origin-y="0"
       vert-origin-x="45"
       vert-origin-y="90"
       vert-adv-y="90"
       style="font-style:normal;font-variant:normal"><font-face
         font-family="Arial"
         id="font-face9336" /><missing-glyph
         id="missing-glyph9338"><path
           d="M0 0z"
           id="path9340" /></missing-glyph><glyph
         unicode="U"
         horiz-adv-x="722"
         id="glyph9342"><path
           d="M72.9949 715.999l145.011 0 0 -387.993c0,-61.6715 1.83354,-101.502 5.32719,-119.676 6.16963,-29.3243 20.6645,-52.9993 43.6706,-70.6658 23.1671,-17.8275 54.6594,-26.6607 94.6629,-26.6607 40.499,0 71.1613,8.32528 91.8383,25.1617 20.6645,16.8364 32.9914,37.3399 37.1664,61.8326 4.16264,24.5051 6.33068,65.0041 6.33068,121.671l0 396.33 144.999 0 0 -376.496c0,-86.0031 -3.82814,-146.832 -11.6703,-182.339 -7.82973,-35.4939 -22.1636,-65.4996 -43.1626,-89.9923 -20.838,-24.5051 -48.8367,-43.844 -83.8351,-58.3389 -35.1718,-14.4949 -80.837,-21.8291 -137.33,-21.8291 -68.1632,0 -119.837,7.82973 -155.009,23.6626 -35.1594,15.8329 -62.9971,36.3364 -83.4882,61.6715 -20.5035,25.3227 -33.8338,51.6613 -40.338,79.499 -9.50222,40.9946 -14.1728,101.663 -14.1728,181.831l0 382.331z"
           id="path9344" /></glyph><glyph
         unicode="R"
         horiz-adv-x="722"
         id="glyph9346"><path
           d="M72.9949 0l0 715.999 304.505 0c76.5009,0 132.164,-6.50413 166.828,-19.3265 34.8373,-12.8348 62.5015,-35.6674 83.3395,-68.5101 20.838,-32.9914 31.3313,-70.4923 31.3313,-112.825 0,-53.8418 -15.6595,-98.1689 -47.1642,-133.167 -31.5047,-34.9984 -78.4955,-57.0009 -141.17,-66.1686 31.1702,-18.162 56.8399,-38.1699 77.0088,-59.999 20.33,-21.8415 47.6598,-60.668 81.9891,-116.331l87.3411 -139.671 -172.836 0 -103.67 156.334c-37.1664,55.5019 -62.6626,90.5003 -76.5009,104.995 -13.6649,14.3339 -28.1598,24.3316 -43.4971,29.6712 -15.4984,5.32719 -39.83,8.00317 -73.1683,8.00317l-29.3243 0 0 -299.004 -145.011 0zm145.011 413.006l106.99 0c69.3402,0 112.503,2.99809 129.835,8.83322 17.1709,5.82274 30.8357,15.994 40.499,30.3278 9.83672,14.3339 14.6684,32.3348 14.6684,53.8294 0,24.1706 -6.49174,43.5095 -19.3265,58.5 -12.8348,14.8418 -31.0092,24.1706 -54.3373,27.9987 -11.8313,1.67249 -47.0031,2.50254 -105.503,2.50254l-112.825 0 0 -181.992z"
           id="path9348" /></glyph><glyph
         unicode="O"
         horiz-adv-x="777"
         id="glyph9350"><path
           d="M43.0016 353.663c0,73.0073 11.0013,134.332 32.8303,183.999 16.1674,36.5098 38.5044,69.3402 66.6642,98.3424 28.1722,28.9898 59.0079,50.4968 92.5072,64.6572 44.6617,18.8434 96.1619,28.3332 154.501,28.3332 105.664,0 189.995,-32.8303 253.5,-98.33 63.3316,-65.6607 94.9974,-156.83 94.9974,-273.669 0,-115.835 -31.5047,-206.497 -94.3408,-271.835 -62.8237,-65.4996 -146.993,-98.1565 -252.162,-98.1565 -106.494,0 -191.333,32.4958 -254.169,97.661 -62.836,65.0041 -94.3284,154.674 -94.3284,268.998zm149 4.83164c0,-81.1591 18.831,-142.657 56.3319,-184.668 37.5009,-41.8246 85.1607,-62.8237 142.831,-62.8237 57.831,0 105.169,20.8256 142.335,62.3281 37.0054,41.6636 55.5019,104.004 55.5019,187.17 0,82.1626 -18.0009,143.5 -54.1639,183.825 -36.0019,40.5114 -83.8351,60.668 -143.673,60.668 -59.6645,0 -107.832,-20.4911 -144.33,-61.3246 -36.4974,-41.007 -54.8329,-102.666 -54.8329,-185.176z"
           id="path9352" /></glyph><glyph
         unicode="À"
         horiz-adv-x="722"
         id="glyph9354"><path
           d="M718.006 0l-156.173 0 -61.8326 163 -287.173 0 -59.4911 -163 -153.336 0 278.005 715.999 153.163 0 286.838 -715.999zm-265.009 284.001l-99.4945 264.997 -96.6699 -264.997 196.164 0zm-22.0025 497.002l-85.9907 0 -135.001 146.002 153.002 0 67.9898 -146.002z"
           id="path9356" /></glyph><glyph
         unicode="I"
         horiz-adv-x="277"
         id="glyph9358"><path
           d="M68.0022 0l0 715.999 144.999 0 0 -715.999 -144.999 0z"
           id="path9360" /></glyph><glyph
         unicode="T"
         horiz-adv-x="610"
         id="glyph9362"><path
           d="M234 0l0 594.997 -211.997 0 0 121.002 568.002 0 0 -121.002 -211.006 0 0 -594.997 -144.999 0z"
           id="path9364" /></glyph><glyph
         unicode="Ẫ"
         horiz-adv-x="722"
         id="glyph9366"><path
           d="M718.006 0l-156.173 0 -61.8326 163 -287.173 0 -59.4911 -163 -153.336 0 278.005 715.999 153.163 0 286.838 -715.999zm-265.009 284.001l-99.4945 264.997 -96.6699 -264.997 196.164 0zm-98.491 492.505l-53.5073 -36.5098 -96.0009 0 105.999 64.0006 87.0066 0 105.999 -64.0006 -96.0009 0 -53.4949 36.5098zm-163.508 43.4971c-0.334498,21.8291 8.67217,40.9946 27.1687,57.3354 18.3354,16.4895 42.3326,24.6661 72.0038,24.6661 20.1566,0 47.6598,-7.33418 82.4971,-22.0025 25.0006,-8.00317 43.3361,-12.0048 54.6594,-12.0048 19.8345,0 31.8392,11.6703 35.6674,34.9984l55.0063 0c-2.16804,-54.6594 -33.9949,-82.0015 -95.6664,-82.0015 -20.5035,0 -47.4987,7.01207 -81.1715,21.1725 -28.6677,9.16772 -47.9943,13.8383 -57.992,13.8383 -20.838,0 -33.3383,-12.0048 -37.1664,-36.0019l-55.0063 0z"
           id="path9368" /></glyph><glyph
         unicode="N"
         horiz-adv-x="722"
         id="glyph9370"><path
           d="M72.9949 0l0 715.999 140.34 0 294.668 -479.831 0 479.831 133.997 0 0 -715.999 -144.838 0 -290.158 470.663 0 -470.663 -134.01 0z"
           id="path9372" /></glyph><glyph
         unicode="Â"
         horiz-adv-x="722"
         id="glyph9374"><path
           d="M718.006 0l-156.173 0 -61.8326 163 -287.173 0 -59.4911 -163 -153.336 0 278.005 715.999 153.163 0 286.838 -715.999zm-265.009 284.001l-99.4945 264.997 -96.6699 -264.997 196.164 0zm-256.993 497.002l102.493 143.995 126.341 0 101.167 -143.995 -110 0 -56.5054 72.9949 -52.5038 -72.9949 -110.991 0z"
           id="path9376" /></glyph><glyph
         unicode="H"
         horiz-adv-x="722"
         id="glyph9378"><path
           d="M72.9949 0l0 715.999 145.011 0 0 -281.994 281.994 0 0 281.994 144.999 0 0 -715.999 -144.999 0 0 313.003 -281.994 0 0 -313.003 -145.011 0z"
           id="path9380" /></glyph><glyph
         unicode=" "
         horiz-adv-x="277"
         id="glyph9382" /><glyph
         unicode="Ờ"
         horiz-adv-x="852"
         id="glyph9384"><path
           d="M192.002 358.495c0,-78.9911 18.831,-140.489 56.3319,-184.829 35.4939,-41.837 83.1661,-62.6626 142.831,-62.6626 59.838,0 107.337,20.8256 142.508,62.6626 36.8319,43.6706 55.3284,105.838 55.3284,186.836 0,80.168 -18.0009,141.493 -53.8294,183.825 -34.6763,40.5114 -82.5095,60.668 -144.008,60.668 -61.337,0 -109.492,-20.4911 -144.33,-61.6591 -36.4974,-42.6671 -54.8329,-104.339 -54.8329,-184.841zm523.997 357.504l136.995 0 0 -98.1689c0,-40.3256 -3.49364,-71.9914 -10.4933,-94.824 -6.99968,-22.6715 -19.6734,-43.0016 -38.1699,-60.668 -18.6699,-17.8399 -41.837,-31.8392 -69.8357,-42.3326 2.34149,-20.169 3.50603,-41.3415 3.50603,-63.1705 0,-114.832 -31.3313,-205.171 -93.8329,-271.005 -62.5015,-65.8341 -146.832,-98.8255 -252.67,-98.8255 -106.829,0 -191.667,32.6569 -254.33,98.1565 -62.836,65.3386 -94.1673,154.835 -94.1673,268.503 0,119.998 33.1648,214.165 99.668,282.341 59.999,61.9936 142.335,92.9904 246.835,92.9904 105.664,0 190.168,-32.8303 253.661,-98.491 38.1699,-39.8424 64.8306,-89.0012 80.168,-147.501 37.8354,17.3319 57.3354,49.3322 58.661,96.0009l-65.9952 0 0 136.995zm-235.994 65.0041l-86.0031 0 -135.001 146.002 153.002 0 68.0022 -146.002z"
           id="path9386" /></glyph><glyph
         unicode="M"
         horiz-adv-x="832"
         id="glyph9388"><path
           d="M71.0003 0l0 715.999 217.163 0 128.336 -488.33 126.837 488.33 217.659 0 0 -715.999 -133.997 0 -0.495552 563.666 -141.17 -563.666 -139.337 0 -140.489 563.666 -0.507941 -563.666 -133.997 0z"
           id="path9390" /></glyph><glyph
         unicode="Á"
         horiz-adv-x="722"
         id="glyph9392"><path
           d="M718.006 0l-156.173 0 -61.8326 163 -287.173 0 -59.4911 -163 -153.336 0 278.005 715.999 153.163 0 286.838 -715.999zm-265.009 284.001l-99.4945 264.997 -96.6699 -264.997 196.164 0zm-150.995 497.002l68.0022 146.002 153.002 0 -135.001 -146.002 -86.0031 0z"
           id="path9394" /></glyph><glyph
         unicode="Ư"
         horiz-adv-x="829"
         id="glyph9396"><path
           d="M693.005 715.999l136.995 0 0 -98.1689c0,-40.3256 -3.50603,-71.8303 -10.5057,-94.6629 -6.99968,-22.8326 -19.8345,-43.1626 -38.331,-61.0025 -29.9933,-28.6677 -75.993,-47.6598 -138.16,-57.162l0 -65.1651c0,-84.5041 -3.84053,-145.333 -11.6703,-182.5 -7.49523,-34.9984 -21.8291,-65.0041 -43.0016,-90.0047 -46.1607,-53.4949 -119.998,-80.329 -221.834,-80.329 -113.159,0 -192.671,28.4943 -238.831,85.4952 -20.5035,25.1617 -33.9949,51.5003 -40.499,79.3379 -9.50222,40.6601 -14.1728,101.328 -14.1728,181.831l0 382.331 145.011 0 0 -387.993c0,-62.1671 1.83354,-102.171 5.32719,-119.676 13.3304,-64.8306 59.5035,-97.3265 138.829,-97.3265 76.3398,0 119.502,29.0022 129.5,86.9942 4.17503,24.5051 6.34307,65.0041 6.34307,121.671l0 396.33 144.999 0 0 -254.999c47.1642,8.83322 79.9945,25.8307 98.491,51.1658 11.0013,15.0028 16.8364,37.3399 17.5054,66.8376l-65.9952 0 0 136.995z"
           id="path9398" /></glyph><glyph
         unicode="G"
         horiz-adv-x="777"
         id="glyph9400"><path
           d="M406.006 263.002l0 121.002 310.996 0 0 -285.674c-30.1668,-29.4978 -73.9984,-55.3284 -131.507,-77.8265 -57.323,-22.337 -115.501,-33.4993 -174.496,-33.4993 -74.8284,0 -139.994,15.6595 -195.669,47.1642 -55.5019,31.4924 -97.3265,76.662 -125.325,135.162 -27.9987,58.5 -42.0105,122.34 -42.0105,191.172 0,74.6674 15.6718,140.997 46.8421,199.163 31.3313,58.0044 76.9965,102.666 137.169,133.663 45.9997,23.8361 103.001,35.6674 171.325,35.6674 88.8402,0 158.341,-18.6575 208.343,-55.9974 49.8278,-37.5009 81.9891,-89.0012 96.323,-154.996l-143.995 -26.9952c-9.99777,35.1594 -29.0022,62.9971 -56.8399,83.4882 -27.6642,20.3424 -62.3281,30.5013 -103.992,30.5013 -62.9971,0 -113.172,-19.9955 -150.338,-60.1601 -37.1664,-40.1645 -55.8364,-99.668 -55.8364,-178.498 0,-85.1731 18.8434,-149 56.5054,-191.506 37.8354,-42.4936 87.1677,-63.8272 148.331,-63.8272 30.1668,0 60.507,5.99618 90.8348,17.8275 30.5013,11.8313 56.5054,26.3386 78.3344,43.3361l0 90.8348 -164.994 0z"
           id="path9402" /></glyph></font>
</defs>
</svg>
