<?xml version="1.0" encoding="UTF-8"?>

<svg version="1.2" baseProfile="tiny" width="205.12mm" height="274.11mm" viewBox="-10675 1945 20512 27411" preserveAspectRatio="xMidYMid" fill-rule="evenodd" stroke-width="28.222" stroke-linejoin="round" xmlns="http://www.w3.org/2000/svg" xmlns:xlink="http://www.w3.org/1999/xlink" xml:space="preserve">
 <defs>
  <font id="EmbeddedFont_1" horiz-adv-x="2048">
   <font-face font-family="Arial embedded" units-per-em="2048" font-weight="normal" font-style="normal" ascent="1852" descent="450"/>
   <missing-glyph horiz-adv-x="2048" d="M 0,0 L 2047,0 2047,2047 0,2047 0,0 Z"/>
   <glyph unicode="y" horiz-adv-x="928" d="M 127,-409 L 107,-240 C 146,-251 181,-256 210,-256 250,-256 282,-249 306,-236 330,-223 350,-204 365,-180 376,-162 395,-117 420,-46 423,-36 429,-21 436,-2 L 33,1062 227,1062 448,447 C 477,369 502,287 525,201 546,284 570,364 599,443 L 826,1062 1006,1062 602,-18 C 559,-135 525,-215 501,-259 469,-318 432,-362 391,-389 350,-417 300,-431 243,-431 208,-431 170,-424 127,-409 Z"/>
   <glyph unicode="v" horiz-adv-x="954" d="M 430,0 L 26,1062 216,1062 444,426 C 469,357 491,286 512,212 528,268 550,335 579,414 L 815,1062 1000,1062 598,0 430,0 Z"/>
   <glyph unicode="u" horiz-adv-x="848" d="M 831,0 L 831,156 C 748,36 636,-24 494,-24 431,-24 373,-12 319,12 264,36 224,66 198,103 171,139 153,183 142,236 135,271 131,327 131,404 L 131,1062 311,1062 311,473 C 311,379 315,316 322,283 333,236 357,199 394,172 431,145 476,131 530,131 584,131 635,145 682,173 729,200 763,238 783,286 802,333 812,402 812,493 L 812,1062 992,1062 992,0 831,0 Z"/>
   <glyph unicode="t" horiz-adv-x="504" d="M 528,161 L 554,2 C 503,-9 458,-14 418,-14 353,-14 302,-4 266,17 230,38 205,65 190,99 175,132 168,203 168,311 L 168,922 36,922 36,1062 168,1062 168,1325 347,1433 347,1062 528,1062 528,922 347,922 347,301 C 347,250 350,217 357,202 363,187 373,176 388,167 402,158 422,154 449,154 469,154 495,156 528,161 Z"/>
   <glyph unicode="s" horiz-adv-x="874" d="M 63,317 L 241,345 C 251,274 279,219 325,181 370,143 434,124 516,124 599,124 660,141 700,175 740,208 760,248 760,293 760,334 742,366 707,389 682,405 621,425 523,450 391,483 300,512 249,537 198,561 159,595 133,638 106,681 93,728 93,780 93,827 104,871 126,912 147,952 177,985 214,1012 242,1033 280,1050 329,1065 377,1079 429,1086 484,1086 567,1086 641,1074 704,1050 767,1026 813,994 843,953 873,912 894,857 905,788 L 729,764 C 721,819 698,861 660,892 621,923 567,938 497,938 414,938 355,924 320,897 285,870 267,838 267,801 267,778 274,757 289,738 304,719 327,703 358,690 376,683 429,668 517,644 644,610 733,582 784,561 834,539 873,507 902,466 931,425 945,373 945,312 945,252 928,196 893,143 858,90 807,49 741,20 675,-9 600,-24 517,-24 379,-24 274,5 202,62 129,119 83,204 63,317 Z"/>
   <glyph unicode="r" horiz-adv-x="557" d="M 133,0 L 133,1062 295,1062 295,901 C 336,976 375,1026 410,1050 445,1074 483,1086 525,1086 586,1086 647,1067 710,1028 L 648,861 C 604,887 560,900 516,900 477,900 441,888 410,865 379,841 356,808 343,766 323,702 313,632 313,556 L 313,0 133,0 Z"/>
   <glyph unicode="o" horiz-adv-x="980" d="M 68,531 C 68,728 123,873 232,968 323,1047 435,1086 566,1086 712,1086 831,1038 924,943 1017,847 1063,715 1063,546 1063,409 1043,302 1002,224 961,145 901,84 823,41 744,-2 659,-24 566,-24 417,-24 297,24 206,119 114,214 68,352 68,531 Z M 253,531 C 253,395 283,293 342,226 401,158 476,124 566,124 655,124 730,158 789,226 848,294 878,398 878,537 878,668 848,768 789,836 729,903 655,937 566,937 476,937 401,903 342,836 283,769 253,667 253,531 Z"/>
   <glyph unicode="n" horiz-adv-x="848" d="M 135,0 L 135,1062 297,1062 297,911 C 375,1028 488,1086 635,1086 699,1086 758,1075 812,1052 865,1029 905,998 932,961 959,924 977,879 988,828 995,795 998,736 998,653 L 998,0 818,0 818,646 C 818,719 811,774 797,811 783,847 758,876 723,898 687,919 645,930 597,930 520,930 454,906 399,857 343,808 315,716 315,580 L 315,0 135,0 Z"/>
   <glyph unicode="m" horiz-adv-x="1457" d="M 135,0 L 135,1062 296,1062 296,913 C 329,965 374,1007 429,1039 484,1070 547,1086 618,1086 697,1086 761,1070 812,1037 862,1004 897,959 918,900 1002,1024 1111,1086 1246,1086 1351,1086 1432,1057 1489,999 1546,940 1574,850 1574,729 L 1574,0 1395,0 1395,669 C 1395,741 1389,793 1378,825 1366,856 1345,882 1314,901 1283,920 1247,930 1206,930 1131,930 1069,905 1020,856 971,806 946,726 946,617 L 946,0 766,0 766,690 C 766,770 751,830 722,870 693,910 645,930 578,930 527,930 481,917 438,890 395,863 363,824 344,773 325,722 315,648 315,551 L 315,0 135,0 Z"/>
   <glyph unicode="j" horiz-adv-x="398" d="M 134,1257 L 134,1466 314,1466 314,1257 134,1257 Z M -94,-412 L -60,-259 C -24,-268 4,-273 25,-273 62,-273 89,-261 107,-236 125,-212 134,-151 134,-54 L 134,1062 314,1062 314,-58 C 314,-189 297,-280 263,-331 220,-398 148,-431 47,-431 -2,-431 -49,-425 -94,-412 Z"/>
   <glyph unicode="i" horiz-adv-x="160" d="M 136,1259 L 136,1466 316,1466 316,1259 136,1259 Z M 136,0 L 136,1062 316,1062 316,0 136,0 Z"/>
   <glyph unicode="h" horiz-adv-x="848" d="M 135,0 L 135,1466 315,1466 315,940 C 399,1037 505,1086 633,1086 712,1086 780,1071 838,1040 896,1009 938,966 963,911 988,856 1000,777 1000,673 L 1000,0 820,0 820,673 C 820,763 801,829 762,870 723,911 667,931 596,931 543,931 493,917 446,890 399,862 365,824 345,777 325,730 315,664 315,581 L 315,0 135,0 Z"/>
   <glyph unicode="f" horiz-adv-x="610" d="M 178,0 L 178,922 19,922 19,1062 178,1062 178,1175 C 178,1246 184,1299 197,1334 214,1381 245,1419 289,1448 332,1477 393,1491 472,1491 523,1491 579,1485 640,1473 L 613,1316 C 576,1323 540,1326 507,1326 452,1326 414,1314 391,1291 368,1268 357,1224 357,1160 L 357,1062 564,1062 564,922 357,922 357,0 178,0 Z"/>
   <glyph unicode="e" horiz-adv-x="980" d="M 862,342 L 1048,319 C 1019,210 964,126 885,66 806,6 704,-24 581,-24 426,-24 303,24 212,120 121,215 75,349 75,522 75,701 121,839 213,938 305,1037 424,1086 571,1086 713,1086 829,1038 919,941 1009,844 1054,708 1054,533 1054,522 1054,506 1053,485 L 261,485 C 268,368 301,279 360,217 419,155 493,124 582,124 648,124 704,141 751,176 798,211 835,266 862,342 Z M 271,633 L 864,633 C 856,722 833,789 796,834 739,903 664,938 573,938 490,938 421,910 365,855 308,800 277,726 271,633 Z"/>
   <glyph unicode="d" horiz-adv-x="927" d="M 824,0 L 824,134 C 757,29 658,-24 527,-24 442,-24 365,-1 294,46 223,93 168,158 129,242 90,325 70,421 70,530 70,636 88,732 123,819 158,905 211,971 282,1017 353,1063 432,1086 519,1086 583,1086 640,1073 690,1046 740,1019 781,983 812,940 L 812,1466 991,1466 991,0 824,0 Z M 255,530 C 255,394 284,292 341,225 398,158 466,124 544,124 623,124 690,156 745,221 800,285 827,383 827,515 827,660 799,767 743,835 687,903 618,937 536,937 456,937 389,904 336,839 282,774 255,671 255,530 Z"/>
   <glyph unicode="c" horiz-adv-x="927" d="M 828,389 L 1005,366 C 986,244 936,149 857,80 777,11 679,-24 563,-24 418,-24 301,24 213,119 124,214 80,350 80,527 80,642 99,742 137,828 175,914 233,979 311,1022 388,1065 473,1086 564,1086 679,1086 774,1057 847,999 920,940 967,857 988,750 L 813,723 C 796,794 767,848 725,884 682,920 631,938 571,938 480,938 407,906 350,841 293,776 265,673 265,532 265,389 292,286 347,221 402,156 473,124 561,124 632,124 691,146 738,189 785,232 815,299 828,389 Z"/>
   <glyph unicode="b" horiz-adv-x="901" d="M 301,0 L 134,0 134,1466 314,1466 314,943 C 390,1038 487,1086 605,1086 670,1086 732,1073 791,1047 849,1020 897,983 935,936 972,888 1002,830 1023,763 1044,696 1055,624 1055,547 1055,365 1010,224 920,125 830,26 722,-24 596,-24 471,-24 372,28 301,133 L 301,0 Z M 299,539 C 299,412 316,320 351,263 408,170 484,124 581,124 660,124 728,158 785,227 842,295 871,397 871,532 871,671 844,773 789,839 734,905 667,938 589,938 510,938 442,904 385,836 328,767 299,668 299,539 Z"/>
   <glyph unicode="a" horiz-adv-x="980" d="M 828,131 C 761,74 697,34 636,11 574,-12 508,-24 437,-24 320,-24 231,5 168,62 105,119 74,191 74,280 74,332 86,380 110,423 133,466 164,500 203,526 241,552 284,572 332,585 367,594 421,603 492,612 637,629 744,650 813,674 814,699 814,714 814,721 814,794 797,846 763,876 717,917 649,937 558,937 473,937 411,922 371,893 330,863 300,810 281,735 L 105,759 C 121,834 147,895 184,942 221,988 274,1024 343,1049 412,1074 493,1086 584,1086 675,1086 748,1075 805,1054 862,1033 903,1006 930,974 957,941 975,900 986,851 992,820 995,765 995,685 L 995,445 C 995,278 999,172 1007,128 1014,83 1029,41 1052,0 L 864,0 C 845,37 833,81 828,131 Z M 813,533 C 748,506 650,484 519,465 445,454 393,442 362,429 331,416 308,396 291,371 274,345 266,316 266,285 266,237 284,197 321,165 357,133 410,117 480,117 549,117 611,132 665,163 719,193 759,234 784,287 803,328 813,388 813,467 L 813,533 Z"/>
   <glyph unicode="R" horiz-adv-x="1271" d="M 161,0 L 161,1466 811,1466 C 942,1466 1041,1453 1109,1427 1177,1400 1231,1354 1272,1287 1313,1220 1333,1147 1333,1066 1333,962 1299,874 1232,803 1165,732 1061,686 920,667 971,642 1010,618 1037,594 1094,542 1147,477 1198,399 L 1453,0 1209,0 1015,305 C 958,393 912,460 875,507 838,554 806,586 777,605 748,624 718,637 688,644 666,649 630,651 580,651 L 355,651 355,0 161,0 Z M 355,819 L 772,819 C 861,819 930,828 980,847 1030,865 1068,894 1094,935 1120,975 1133,1019 1133,1066 1133,1135 1108,1192 1058,1237 1007,1282 928,1304 819,1304 L 355,1304 355,819 Z"/>
   <glyph unicode="P" horiz-adv-x="1113" d="M 158,0 L 158,1466 711,1466 C 808,1466 883,1461 934,1452 1006,1440 1066,1417 1115,1384 1164,1350 1203,1303 1233,1242 1262,1181 1277,1115 1277,1042 1277,917 1237,812 1158,726 1079,639 935,596 728,596 L 352,596 352,0 158,0 Z M 352,769 L 731,769 C 856,769 945,792 998,839 1051,886 1077,951 1077,1036 1077,1097 1062,1150 1031,1194 1000,1237 959,1266 908,1280 875,1289 815,1293 727,1293 L 352,1293 352,769 Z"/>
   <glyph unicode="F" horiz-adv-x="980" d="M 168,0 L 168,1466 1157,1466 1157,1293 362,1293 362,839 1050,839 1050,666 362,666 362,0 168,0 Z"/>
   <glyph unicode="D" horiz-adv-x="1191" d="M 158,0 L 158,1466 663,1466 C 777,1466 864,1459 924,1445 1008,1426 1080,1391 1139,1340 1216,1275 1274,1191 1313,1090 1351,988 1370,872 1370,741 1370,630 1357,531 1331,445 1305,359 1272,288 1231,232 1190,175 1146,131 1098,99 1049,66 991,42 923,25 854,8 776,0 687,0 L 158,0 Z M 352,173 L 665,173 C 762,173 838,182 893,200 948,218 991,243 1024,276 1070,322 1106,384 1132,462 1157,539 1170,633 1170,744 1170,897 1145,1015 1095,1098 1044,1180 983,1235 911,1263 859,1283 775,1293 660,1293 L 352,1293 352,173 Z"/>
   <glyph unicode="A" horiz-adv-x="1376" d="M -3,0 L 560,1466 769,1466 1369,0 1148,0 977,444 364,444 203,0 -3,0 Z M 420,602 L 917,602 764,1008 C 717,1131 683,1233 660,1312 641,1218 615,1125 581,1032 L 420,602 Z"/>
   <glyph unicode="8" horiz-adv-x="954" d="M 362,795 C 287,822 232,861 196,912 160,963 142,1023 142,1094 142,1201 180,1290 257,1363 334,1436 436,1472 563,1472 691,1472 794,1435 872,1361 950,1286 989,1196 989,1089 989,1021 971,962 936,912 900,861 846,822 773,795 863,766 932,718 979,653 1026,588 1049,510 1049,419 1049,294 1005,188 916,103 827,18 711,-25 566,-25 421,-25 305,18 216,104 127,189 83,296 83,424 83,519 107,599 156,664 204,728 273,772 362,795 Z M 326,1100 C 326,1031 348,974 393,930 438,886 496,864 567,864 636,864 693,886 738,930 782,973 804,1027 804,1090 804,1156 781,1212 736,1257 690,1302 633,1324 565,1324 496,1324 439,1302 394,1258 349,1214 326,1161 326,1100 Z M 268,423 C 268,372 280,322 305,274 329,226 365,189 413,163 461,136 513,123 568,123 654,123 725,151 781,206 837,261 865,332 865,417 865,504 836,575 779,632 721,689 649,717 562,717 477,717 407,689 352,633 296,577 268,507 268,423 Z"/>
   <glyph unicode="1" horiz-adv-x="530" d="M 763,0 L 583,0 583,1147 C 540,1106 483,1064 413,1023 342,982 279,951 223,930 L 223,1104 C 324,1151 412,1209 487,1276 562,1343 616,1409 647,1472 L 763,1472 763,0 Z"/>
   <glyph unicode="," horiz-adv-x="212" d="M 182,0 L 182,205 387,205 387,0 C 387,-75 374,-136 347,-182 320,-229 278,-265 220,-290 L 170,-213 C 208,-196 236,-172 254,-139 272,-107 282,-61 284,0 L 182,0 Z"/>
   <glyph unicode="!" horiz-adv-x="212" d="M 231,364 L 176,1141 176,1466 399,1466 399,1141 347,364 231,364 Z M 184,0 L 184,205 391,205 391,0 184,0 Z"/>
   <glyph unicode=" " horiz-adv-x="556"/>
  </font>
 </defs>
 <defs>
  <font id="EmbeddedFont_2" horiz-adv-x="2048">
   <font-face font-family="Quicksand Bold embedded" units-per-em="2048" font-weight="bold" font-style="normal" ascent="1958" descent="370"/>
   <missing-glyph horiz-adv-x="2048" d="M 0,0 L 2047,0 2047,2047 0,2047 0,0 Z"/>
   <glyph unicode="y" horiz-adv-x="821" d="M 852,1024 C 821,1023 796,1013 776,993 757,972 747,947 746,915 L 746,430 C 745,370 724,320 684,281 645,242 595,222 535,221 475,222 425,242 385,281 344,320 324,370 322,430 L 322,915 C 321,947 311,972 292,993 272,1013 246,1023 213,1024 185,1023 160,1013 140,993 119,972 108,947 107,915 L 107,430 C 108,351 128,279 166,214 204,149 255,98 319,59 384,21 456,1 535,0 569,0 603,4 636,12 670,21 701,33 730,49 712,-5 681,-48 635,-82 589,-115 535,-133 474,-135 453,-135 433,-133 413,-128 394,-123 374,-116 355,-107 329,-94 302,-92 274,-101 245,-110 224,-127 209,-151 197,-181 196,-209 205,-236 215,-263 234,-284 263,-297 294,-312 327,-325 363,-334 400,-343 436,-348 474,-348 565,-347 648,-325 722,-282 795,-239 853,-181 897,-108 940,-35 962,47 963,139 L 963,430 963,430 963,915 C 962,947 951,972 930,993 909,1013 883,1023 852,1024 Z"/>
   <glyph unicode="w" horiz-adv-x="1351" d="M 1448,999 C 1421,1010 1394,1010 1368,999 1341,988 1322,968 1311,938 L 1069,387 924,729 C 915,750 902,766 884,777 866,789 846,795 823,795 801,795 782,789 764,777 746,766 733,750 723,729 L 580,387 338,938 C 326,968 306,988 280,999 254,1010 228,1010 203,999 174,986 154,967 142,940 131,914 131,887 143,858 L 479,64 C 481,61 483,59 484,56 486,53 488,50 489,47 489,46 490,46 490,45 490,45 491,45 492,45 493,43 494,41 496,39 497,37 499,35 500,33 502,32 503,31 503,31 504,31 504,31 504,31 507,29 509,27 511,25 514,23 515,22 516,21 516,20 516,19 516,19 517,19 517,18 518,18 520,15 523,13 527,11 530,9 533,7 537,6 L 537,6 C 538,6 538,6 539,6 539,6 540,5 541,4 543,4 545,4 547,3 549,2 551,1 553,0 555,0 556,0 557,0 557,0 558,0 559,0 562,0 565,0 569,0 572,0 576,0 580,0 583,-1 586,-1 589,-1 592,-1 596,-1 600,0 600,0 600,0 601,0 601,0 602,0 604,0 605,1 607,2 610,3 612,4 614,4 616,4 617,5 617,6 617,6 618,6 618,6 618,6 619,6 619,6 621,6 622,6 622,6 623,6 626,7 628,9 631,11 634,13 637,15 641,18 L 641,18 C 645,23 649,27 653,31 653,31 654,31 654,31 655,31 655,32 655,33 659,37 664,41 668,45 668,45 668,46 668,46 668,47 668,47 668,47 670,50 672,53 674,56 675,59 677,61 678,64 L 823,418 973,64 C 974,61 975,59 976,56 977,53 979,50 981,47 981,46 981,46 982,45 983,45 983,45 983,45 984,43 986,41 987,39 989,37 991,35 993,33 993,32 994,31 995,31 997,31 997,31 997,31 999,29 1001,27 1003,25 1004,23 1007,22 1010,21 1010,20 1010,19 1010,19 1010,19 1010,18 1010,18 1016,12 1022,8 1028,6 1028,6 1028,6 1028,6 1029,6 1029,6 1030,6 1030,6 1030,6 1030,6 1031,6 1031,5 1032,4 1035,4 1038,4 1040,3 1042,2 1045,1 1047,0 1047,0 1048,0 1049,0 1049,0 1050,0 1051,0 1057,0 1063,0 1069,0 L 1069,0 1069,0 1069,0 1069,0 C 1073,-1 1077,-1 1080,-1 1083,-1 1087,-1 1090,0 1090,0 1091,0 1092,0 1092,0 1093,0 1094,0 1097,1 1100,2 1103,3 1105,4 1108,4 1110,4 1110,5 1110,6 1111,6 1112,6 1112,6 1112,6 L 1112,6 C 1116,7 1119,9 1122,11 1125,12 1128,14 1131,16 1131,17 1131,18 1132,18 1132,19 1132,20 1133,21 1135,22 1137,23 1139,25 1141,27 1143,29 1145,31 1145,31 1145,31 1146,31 1147,31 1148,32 1149,33 1151,35 1153,37 1155,39 1157,41 1158,43 1159,45 1159,45 1160,45 1160,45 1161,46 1161,46 1161,47 1163,50 1165,53 1166,56 1167,59 1168,61 1169,64 L 1507,858 C 1519,887 1519,914 1508,940 1496,967 1476,986 1448,999 Z"/>
   <glyph unicode="v" horiz-adv-x="874" d="M 940,997 C 912,1009 886,1009 860,998 834,986 815,966 803,938 L 565,381 330,938 C 316,966 297,986 270,998 244,1009 218,1009 193,997 163,984 143,965 132,939 121,914 121,887 133,858 L 465,64 C 466,60 467,57 468,55 469,52 471,50 473,49 473,48 473,48 473,47 474,47 474,47 475,47 477,45 479,43 481,40 483,37 484,35 485,33 486,32 487,31 487,31 488,31 489,31 489,31 492,28 494,26 496,24 498,22 500,20 502,18 502,19 502,18 503,18 503,18 504,17 504,16 508,14 511,12 514,11 516,9 519,7 522,6 522,6 522,6 523,6 523,6 524,6 526,6 526,6 526,6 526,6 526,6 526,5 526,4 529,4 532,4 535,3 537,2 540,1 543,0 544,0 544,0 545,0 545,0 546,0 547,0 555,0 561,0 565,0 L 565,0 C 568,-1 571,-1 575,-1 578,-1 582,-1 586,0 587,0 587,0 588,0 588,0 589,0 590,0 592,1 594,2 597,3 600,4 603,4 606,4 606,5 606,6 606,6 606,6 606,6 606,6 608,6 609,6 610,6 610,6 610,6 610,6 613,7 616,9 618,11 621,12 623,14 625,16 625,17 625,18 626,18 626,18 627,19 627,18 629,20 631,22 633,24 635,26 637,28 639,31 639,31 639,31 640,31 641,31 641,32 641,33 643,35 645,37 647,40 649,43 651,45 653,47 653,47 654,47 654,47 655,48 655,48 655,49 656,50 658,52 659,55 661,57 662,60 664,64 L 999,858 C 1011,887 1012,914 1000,939 989,965 969,984 940,997 Z"/>
   <glyph unicode="u" horiz-adv-x="847" d="M 1028,426 L 1028,915 C 1027,945 1016,970 994,991 973,1012 947,1023 917,1024 886,1023 861,1012 841,991 822,970 812,945 811,915 L 811,915 811,426 C 809,366 787,317 747,278 707,239 657,218 596,217 536,218 487,239 448,278 409,317 388,366 387,426 L 387,915 C 386,945 376,970 356,991 336,1012 310,1023 279,1024 248,1023 223,1012 202,991 182,970 171,945 170,915 L 170,426 C 171,347 191,276 229,212 267,148 318,97 382,59 446,20 517,1 596,0 675,1 748,20 813,59 878,97 929,148 968,212 1007,276 1027,347 1028,426 Z"/>
   <glyph unicode="t" horiz-adv-x="557" d="M 536,1024 L 485,1024 485,1321 C 484,1354 473,1380 452,1401 432,1422 405,1433 372,1434 340,1433 313,1422 292,1401 270,1380 259,1354 258,1321 L 258,1321 258,1024 199,1024 C 166,1023 139,1012 119,991 98,971 87,944 86,912 87,880 98,854 119,832 139,811 166,800 199,799 L 258,799 258,227 C 260,163 282,110 325,67 368,24 421,2 485,0 518,1 544,12 565,33 586,53 597,80 598,112 597,145 586,172 565,193 544,215 517,226 485,227 L 485,227 485,799 536,799 C 568,800 595,811 617,832 639,854 650,880 651,912 650,944 639,971 617,991 595,1012 568,1023 536,1024 L 536,1024 Z"/>
   <glyph unicode="s" horiz-adv-x="795" d="M 156,141 L 156,141 C 197,107 248,75 309,47 370,18 440,3 520,0 L 520,0 C 571,0 618,8 663,22 708,36 749,56 786,82 L 786,82 C 824,109 855,142 879,183 902,223 915,269 915,319 L 915,319 C 915,343 912,366 905,389 898,412 889,434 877,455 L 877,455 C 859,483 837,507 812,527 786,547 759,563 731,576 L 731,576 C 701,590 671,602 639,611 607,621 574,629 541,635 L 539,635 537,637 537,637 C 502,643 471,651 446,659 420,668 401,677 387,686 L 387,686 C 380,690 375,694 371,698 368,702 365,705 365,707 L 365,707 C 363,710 361,712 361,714 361,716 360,719 360,723 L 360,723 C 360,728 362,735 367,744 371,752 380,761 393,770 L 393,770 C 407,781 424,789 445,796 467,803 490,807 516,807 L 516,807 C 549,807 580,799 610,785 641,771 672,753 705,731 L 705,731 C 731,714 759,708 787,714 816,720 839,735 856,760 L 856,760 C 871,787 876,814 870,843 864,871 848,894 823,911 L 823,911 823,911 C 801,927 776,943 746,961 716,978 682,993 644,1005 606,1017 563,1023 516,1024 L 516,1024 C 469,1024 424,1017 382,1005 339,992 300,973 264,948 L 264,948 C 230,922 201,890 178,852 156,813 144,770 143,723 L 143,723 C 143,699 146,677 152,655 158,633 167,613 178,594 L 178,594 C 197,566 218,543 242,524 266,504 292,488 319,475 L 319,475 C 346,463 375,452 405,444 435,435 466,428 498,422 L 500,422 500,422 500,422 500,422 C 537,414 570,406 599,395 627,385 649,375 664,364 L 664,364 C 672,359 678,355 682,351 687,347 689,343 690,340 L 690,340 C 692,337 694,334 695,331 696,328 696,324 696,319 L 696,319 C 697,311 694,302 689,292 683,281 674,270 659,258 L 659,258 C 643,247 622,238 598,231 574,223 548,219 520,219 L 520,219 C 479,219 438,228 398,246 357,265 323,285 295,309 L 295,309 C 271,329 244,337 215,334 186,331 161,317 141,293 L 141,293 C 123,269 115,243 118,214 120,185 133,161 156,141 Z"/>
   <glyph unicode="r" horiz-adv-x="610" d="M 713,1022 C 662,1022 614,1015 571,1000 528,984 489,965 455,942 448,937 440,931 433,923 425,916 418,909 412,901 L 412,916 C 411,946 400,971 379,991 357,1011 331,1021 299,1022 269,1021 244,1011 223,991 203,971 192,946 191,916 L 191,109 C 192,78 203,53 223,32 244,12 269,1 299,0 331,1 357,12 379,32 400,53 411,78 412,109 L 412,498 C 417,513 426,537 439,570 453,602 472,636 496,670 508,689 522,708 538,724 553,741 571,756 590,768 608,781 626,791 647,798 667,804 689,807 713,807 744,808 770,819 790,840 810,861 821,886 822,916 821,946 810,971 790,991 770,1011 744,1021 713,1022 Z"/>
   <glyph unicode="o" horiz-adv-x="927" d="M 637,-6 C 637,-6 637,-6 637,-6 705,-5 768,8 827,36 886,63 936,101 979,149 1025,195 1060,248 1085,310 1109,371 1122,438 1122,510 L 1122,510 C 1122,580 1109,645 1085,705 1060,765 1025,819 979,869 936,917 886,955 827,982 768,1010 705,1023 637,1024 566,1023 501,1010 442,982 383,955 330,917 284,869 240,819 205,765 181,705 156,645 143,580 143,510 143,438 156,371 181,310 205,248 240,195 284,149 330,101 383,63 442,36 501,8 566,-5 637,-6 Z M 440,723 C 465,746 495,765 528,779 561,793 597,801 637,801 673,801 707,793 739,779 770,765 799,746 825,723 851,695 871,663 884,627 898,591 905,552 905,510 L 905,510 C 905,466 898,426 884,390 871,354 851,321 825,293 799,268 770,249 739,236 707,224 673,217 637,217 597,217 561,224 528,236 495,249 465,268 440,293 416,321 398,354 385,390 372,426 366,466 366,510 366,552 372,591 385,627 398,663 416,695 440,723 Z"/>
   <glyph unicode="n" horiz-adv-x="821" d="M 616,1024 C 576,1024 538,1018 501,1007 464,996 431,980 400,961 390,980 376,996 359,1007 341,1018 321,1024 299,1024 268,1023 242,1012 222,992 202,971 192,946 191,916 L 191,598 191,598 191,109 C 192,78 202,53 222,32 242,12 268,1 299,0 327,1 350,9 370,26 389,42 402,63 408,88 410,92 411,96 411,99 412,102 412,106 412,109 L 412,109 412,598 C 413,657 433,706 471,745 509,783 558,804 616,805 676,804 726,783 766,745 807,706 827,657 829,598 L 829,109 C 830,78 841,53 862,32 883,12 908,1 938,0 968,1 993,12 1013,32 1033,53 1043,78 1044,109 L 1044,598 C 1043,676 1024,747 986,811 948,875 897,927 833,965 768,1003 696,1023 616,1024 Z"/>
   <glyph unicode="m" horiz-adv-x="1456" d="M 1259,805 C 1317,804 1366,783 1405,743 1444,704 1464,654 1466,594 L 1466,109 C 1467,78 1478,53 1499,32 1520,12 1546,1 1577,0 1607,1 1632,12 1653,32 1673,53 1684,78 1685,109 L 1685,594 C 1684,674 1665,747 1627,811 1589,876 1538,927 1474,965 1410,1003 1339,1023 1259,1024 1194,1024 1134,1011 1078,986 1023,962 976,927 938,883 898,927 851,962 796,986 741,1011 681,1024 616,1024 577,1024 539,1018 502,1008 465,997 431,982 398,963 389,982 376,997 359,1008 341,1018 321,1024 299,1024 269,1023 244,1013 223,992 203,972 192,946 191,913 L 191,596 C 191,596 191,596 191,596 191,596 191,595 191,594 L 191,109 C 192,81 200,57 217,38 233,19 254,7 279,0 282,1 285,1 288,1 292,0 295,0 299,0 321,0 342,7 360,19 378,31 392,47 402,66 L 402,66 C 402,68 402,70 402,72 402,73 402,75 402,76 404,78 405,80 406,82 406,84 407,86 408,88 408,88 408,89 408,90 408,92 408,93 408,94 408,96 408,99 409,101 410,104 410,106 410,109 L 410,109 410,594 C 412,654 432,704 471,743 510,783 559,804 616,805 675,804 724,784 764,745 804,706 825,658 827,600 827,598 827,596 827,594 L 827,109 C 828,78 839,53 861,32 882,12 908,1 938,0 L 938,0 938,0 C 968,1 993,12 1014,32 1034,53 1045,78 1046,109 L 1046,594 C 1046,596 1046,598 1046,600 1049,658 1071,706 1110,745 1150,784 1199,804 1259,805 Z"/>
   <glyph unicode="l" horiz-adv-x="213" d="M 205,1321 L 205,113 C 206,81 217,55 238,33 260,12 286,1 317,0 350,1 377,12 398,33 420,55 431,81 432,113 L 432,1321 C 431,1353 420,1379 398,1401 377,1422 350,1433 317,1434 286,1433 260,1422 238,1401 217,1379 206,1353 205,1321 Z"/>
   <glyph unicode="k" horiz-adv-x="821" d="M 303,0 C 336,1 363,12 384,33 406,55 417,81 418,113 L 418,293 531,406 832,41 C 842,28 855,18 870,11 885,4 901,0 918,0 930,0 943,2 955,6 967,11 979,18 989,27 1014,47 1028,73 1031,103 1033,133 1025,161 1006,186 L 690,565 998,873 C 1020,895 1031,922 1031,952 1031,982 1020,1009 998,1032 975,1054 948,1065 918,1065 887,1065 861,1054 838,1032 L 418,613 418,1321 C 417,1353 406,1379 384,1401 363,1422 336,1433 303,1434 271,1433 244,1422 224,1401 203,1379 192,1353 191,1321 L 191,113 C 192,81 203,55 224,33 244,12 271,1 303,0 Z"/>
   <glyph unicode="j" horiz-adv-x="345" d="M 217,1168 C 248,1169 274,1180 295,1202 316,1224 326,1250 327,1281 L 327,1321 C 326,1355 316,1382 295,1402 274,1423 248,1433 217,1434 185,1433 159,1423 137,1402 116,1382 105,1355 104,1321 L 104,1281 C 105,1250 116,1224 137,1202 159,1180 185,1169 217,1168 Z M 102,-362 C 165,-360 217,-338 259,-297 300,-255 321,-203 323,-140 L 323,914 C 322,946 312,973 291,994 271,1015 245,1026 213,1027 182,1026 156,1015 135,994 114,973 103,946 102,914 L 102,-140 C 102,-140 102,-140 102,-140 69,-141 42,-152 22,-172 1,-193 -9,-219 -10,-249 -10,-283 1,-310 21,-330 42,-351 69,-361 102,-362 Z"/>
   <glyph unicode="i" horiz-adv-x="213" d="M 304,1023 C 272,1022 246,1011 225,991 205,970 194,943 193,910 L 193,111 C 194,79 205,53 225,32 246,12 272,1 304,0 336,1 362,12 382,32 403,53 413,79 414,111 L 414,910 C 413,943 403,970 382,991 362,1011 336,1022 304,1023 Z M 414,1324 C 413,1355 403,1381 382,1402 362,1422 336,1433 304,1434 272,1433 246,1422 225,1402 205,1381 194,1355 193,1324 L 193,1281 C 194,1249 205,1223 225,1201 246,1180 272,1169 304,1168 336,1169 362,1180 382,1201 403,1223 413,1249 414,1281 L 414,1324 Z"/>
   <glyph unicode="h" horiz-adv-x="848" d="M 418,576 C 420,638 442,690 483,731 524,772 575,795 637,797 700,795 752,772 794,731 835,690 857,638 858,576 L 858,113 C 859,80 870,54 891,33 911,12 938,1 971,0 1003,1 1030,12 1050,33 1071,54 1082,80 1083,113 L 1083,576 C 1082,659 1062,734 1022,801 983,869 930,922 863,962 796,1002 720,1023 637,1024 597,1024 559,1018 522,1007 485,997 451,982 418,965 L 418,1321 C 417,1354 406,1380 384,1401 363,1422 336,1433 303,1434 272,1433 246,1422 224,1401 203,1380 192,1354 191,1321 L 191,113 C 191,108 192,103 192,98 193,93 194,88 195,84 203,60 216,40 236,24 255,9 278,1 303,0 336,1 363,12 384,33 406,54 417,80 418,113 L 418,576 Z"/>
   <glyph unicode="g" horiz-adv-x="927" d="M 1106,508 L 1106,508 1106,916 C 1105,946 1095,971 1075,992 1055,1012 1029,1023 998,1024 970,1023 947,1015 927,999 907,984 895,963 889,938 852,965 810,986 764,1001 718,1016 668,1024 614,1024 546,1023 482,1010 423,983 363,956 311,919 266,873 222,824 187,769 162,707 136,645 124,579 123,508 124,436 136,369 162,308 187,246 222,193 266,147 311,99 363,61 423,34 482,6 546,-7 614,-8 614,-8 614,-8 614,-8 665,-8 713,0 759,14 804,28 846,48 883,74 868,10 837,-43 789,-84 740,-125 682,-147 614,-148 593,-148 572,-145 553,-140 534,-135 515,-128 498,-119 468,-106 440,-105 412,-114 385,-124 364,-142 350,-171 336,-199 334,-228 344,-256 354,-284 372,-304 399,-318 431,-334 466,-347 502,-356 539,-364 576,-369 614,-369 706,-368 789,-345 863,-301 937,-257 996,-198 1039,-123 1083,-49 1105,34 1106,125 L 1106,506 C 1106,506 1106,506 1106,507 1106,508 1106,508 1106,508 Z M 809,297 C 783,269 753,248 721,234 689,220 653,213 614,213 578,213 544,220 512,234 479,248 451,269 426,297 401,321 381,351 366,388 352,424 344,464 344,508 344,549 352,588 366,625 381,661 401,692 426,717 451,746 479,768 512,783 544,797 578,805 614,805 653,805 689,797 721,783 753,768 783,746 809,717 832,692 851,661 865,625 879,588 887,549 887,508 887,464 879,424 865,388 851,351 832,321 809,297 Z"/>
   <glyph unicode="f" horiz-adv-x="557" d="M 545,1195 C 546,1196 547,1197 549,1199 550,1200 553,1201 557,1202 561,1204 568,1205 577,1206 586,1207 597,1208 610,1208 642,1208 668,1220 690,1241 711,1263 722,1289 723,1322 722,1353 711,1380 690,1401 668,1422 642,1433 610,1434 589,1434 568,1433 548,1430 528,1428 508,1424 487,1418 456,1408 428,1392 401,1370 375,1349 355,1322 340,1291 325,1262 315,1231 309,1197 303,1164 301,1129 301,1091 L 301,1063 248,1063 C 215,1062 188,1051 167,1030 145,1010 134,983 133,951 134,919 145,893 167,871 188,850 215,839 248,838 L 301,838 301,113 C 302,81 313,55 334,33 354,12 381,1 414,0 446,1 473,12 493,33 514,55 525,81 526,113 L 526,838 587,838 C 619,839 645,850 667,871 688,893 699,919 700,951 699,983 688,1010 667,1030 645,1051 619,1062 587,1063 L 526,1063 526,1091 C 527,1129 529,1156 534,1172 539,1188 543,1196 544,1195 L 545,1195 Z"/>
   <glyph unicode="e" horiz-adv-x="980" d="M 618,0 C 691,0 758,11 819,33 880,55 935,89 985,135 1007,158 1017,182 1013,207 1009,232 1000,253 985,268 976,279 962,287 943,291 924,295 905,295 885,291 864,287 846,277 831,262 805,243 772,228 733,220 695,211 656,208 618,211 582,214 545,224 509,241 474,257 444,278 422,303 404,321 389,342 377,366 366,390 357,414 352,438 L 1004,438 C 1033,438 1057,446 1076,461 1095,475 1106,495 1110,520 1111,522 1112,525 1112,529 1112,533 1112,536 1112,538 L 1112,538 1112,538 C 1112,540 1112,542 1112,544 1112,546 1112,547 1112,549 1106,641 1080,723 1036,795 992,866 933,922 861,962 789,1003 708,1023 618,1024 524,1023 439,999 365,953 290,907 231,845 187,768 143,691 120,606 119,512 120,418 143,333 187,256 231,179 290,118 365,72 439,26 524,2 618,0 Z M 618,829 C 678,823 729,809 772,785 814,761 848,733 874,701 899,670 915,640 922,612 L 342,612 C 347,641 361,672 382,704 404,736 434,764 473,788 512,812 561,825 618,829 Z"/>
   <glyph unicode="d" horiz-adv-x="954" d="M 1118,510 L 1118,510 C 1118,511 1118,512 1118,512 1118,512 1118,512 1118,512 L 1118,1323 C 1117,1354 1106,1380 1086,1401 1065,1422 1039,1433 1008,1434 975,1433 948,1422 928,1401 907,1380 896,1354 895,1323 L 895,938 C 857,965 814,986 767,1001 720,1016 671,1024 621,1024 527,1023 443,999 369,953 294,907 235,845 191,768 147,691 124,605 123,510 124,417 147,331 191,255 235,178 294,117 369,71 443,25 527,1 621,0 672,0 722,8 769,24 817,40 860,61 899,88 905,63 917,42 936,26 956,9 979,1 1008,0 1039,1 1065,12 1086,33 1106,54 1117,80 1118,110 L 1118,510 Z M 813,717 C 839,691 859,660 873,625 888,590 895,551 895,510 895,471 888,433 873,398 859,364 839,333 813,307 787,280 758,259 726,245 694,230 658,223 621,223 583,223 548,230 516,245 483,259 454,280 428,307 402,333 382,364 368,398 353,433 346,471 346,510 346,551 353,590 368,625 382,660 402,691 428,717 454,744 483,765 516,779 548,794 583,801 621,801 658,801 694,794 726,779 758,765 787,744 813,717 Z"/>
   <glyph unicode="c" horiz-adv-x="874" d="M 639,0 L 639,0 C 701,1 759,11 815,31 870,50 920,76 965,109 988,130 1002,155 1006,183 1010,211 1004,236 987,260 966,285 941,299 912,303 883,307 857,300 834,283 807,263 777,247 744,235 711,223 676,217 639,217 583,218 532,231 487,258 441,284 405,320 378,364 351,408 337,457 336,510 337,563 351,612 378,657 405,701 441,737 487,764 532,791 583,804 639,805 677,805 712,799 745,787 777,775 807,759 834,739 858,721 884,714 913,717 941,721 966,735 987,760 1004,784 1010,810 1006,839 1002,868 988,892 965,911 920,946 870,973 815,993 759,1013 701,1023 639,1024 544,1022 457,999 379,953 300,908 238,846 191,769 144,692 120,606 119,510 120,415 144,330 191,253 238,176 300,115 379,70 457,24 544,1 639,0 Z"/>
   <glyph unicode="b" horiz-adv-x="954" d="M 191,110 C 192,80 203,54 223,33 244,12 270,1 301,0 330,1 353,9 373,26 392,42 404,63 410,88 449,61 492,40 540,24 587,8 637,0 689,0 782,1 866,25 940,71 1015,117 1074,178 1118,255 1162,331 1185,417 1186,510 1185,605 1162,691 1118,768 1074,845 1015,907 940,953 866,999 782,1023 689,1024 638,1024 589,1016 542,1001 495,986 452,965 414,938 L 414,1323 C 413,1354 402,1380 381,1401 361,1422 334,1433 301,1434 270,1433 244,1422 223,1401 203,1380 192,1354 191,1323 L 191,512 C 191,512 191,512 191,512 191,512 191,511 191,510 L 191,510 191,110 Z M 496,717 C 522,744 551,765 583,779 615,794 651,801 689,801 726,801 761,794 793,779 826,765 855,744 881,717 907,691 927,660 941,625 956,590 963,551 963,510 963,471 956,433 941,398 927,364 907,333 881,307 855,280 826,259 793,245 761,230 726,223 689,223 651,223 615,230 583,245 551,259 522,280 496,307 470,333 450,364 436,398 421,433 414,471 414,510 414,551 421,590 436,625 450,660 470,691 496,717 Z"/>
   <glyph unicode="a" horiz-adv-x="954" d="M 1057,913 C 1056,945 1045,971 1025,992 1004,1012 979,1023 949,1024 922,1023 899,1015 880,998 861,981 849,960 842,934 803,962 761,984 715,1000 669,1016 621,1024 569,1024 499,1023 435,1010 376,983 317,955 265,918 221,871 177,824 143,770 119,709 95,647 82,581 82,510 82,440 95,374 119,313 143,251 177,197 221,149 265,103 317,67 376,40 435,14 499,1 569,0 L 569,0 C 621,0 669,8 715,23 761,39 803,60 842,88 849,63 861,42 880,26 899,9 922,1 949,0 979,1 1004,12 1025,32 1045,53 1056,78 1057,108 L 1057,510 1057,510 1057,510 1057,913 Z M 760,299 C 735,273 706,253 673,240 640,226 606,219 569,219 532,219 497,226 464,240 431,253 403,273 379,299 354,326 335,357 321,393 308,429 301,468 301,510 301,553 308,593 321,629 335,664 354,695 379,721 403,749 431,770 464,784 497,798 532,805 569,805 606,805 640,798 673,784 706,770 735,749 760,721 785,695 804,664 819,629 833,593 840,553 840,510 840,468 833,429 819,393 804,357 785,326 760,299 Z"/>
   <glyph unicode="W" horiz-adv-x="1959" d="M 2044,1407 C 2013,1419 1984,1419 1956,1408 1928,1397 1908,1377 1894,1348 L 1495,399 1231,1028 C 1220,1051 1205,1068 1186,1080 1167,1092 1146,1098 1124,1098 1101,1098 1080,1092 1061,1080 1042,1068 1028,1051 1018,1028 L 754,399 352,1348 C 340,1377 320,1397 292,1408 264,1419 236,1419 207,1407 177,1395 156,1374 145,1347 134,1319 134,1290 145,1262 L 649,68 C 651,64 653,61 654,58 656,54 657,51 659,49 659,49 659,49 659,48 659,48 659,47 659,47 661,45 663,43 665,41 666,39 668,37 670,35 671,33 671,32 672,31 672,30 673,30 674,29 677,28 679,26 681,24 683,23 685,21 688,18 688,18 688,18 688,18 689,18 689,18 690,18 692,16 695,14 699,12 702,9 705,7 709,6 L 709,6 C 710,6 710,6 711,6 711,6 712,5 713,4 715,4 717,4 719,3 721,2 724,1 727,0 729,0 731,0 733,0 736,0 740,0 743,0 747,0 751,0 754,0 L 754,0 754,0 754,0 C 760,-2 766,-2 772,0 774,0 776,0 778,0 780,1 782,2 785,3 787,4 791,4 795,4 795,5 795,6 796,6 796,6 797,6 797,6 797,6 797,6 797,6 797,6 798,6 799,6 801,7 803,9 806,12 809,14 812,16 815,18 815,18 815,18 816,18 816,18 817,18 819,18 821,21 823,23 825,24 827,26 829,28 831,29 832,30 832,30 833,31 833,32 833,33 834,35 838,39 842,43 846,47 846,47 846,48 846,48 846,49 847,49 848,49 849,51 850,54 852,58 854,61 855,64 856,68 L 1124,703 1393,68 C 1394,64 1395,61 1396,58 1397,54 1399,51 1401,49 1401,49 1401,49 1401,48 1402,48 1403,47 1405,47 1406,45 1407,43 1409,41 1411,39 1412,37 1413,35 1414,33 1415,32 1415,31 1416,30 1416,30 1417,29 1419,28 1421,26 1424,24 1426,23 1429,21 1432,18 1432,18 1432,18 1432,18 1432,18 1433,18 1434,18 1436,16 1438,14 1441,12 1444,9 1448,7 1452,6 L 1452,6 C 1453,6 1454,6 1454,6 1455,6 1455,5 1456,4 1458,4 1460,4 1463,3 1465,2 1467,1 1470,0 1470,0 1473,0 1477,0 1483,0 1489,0 1495,0 1499,-1 1503,-1 1506,-1 1509,-1 1512,-1 1516,0 1516,0 1516,0 1517,0 1518,0 1519,0 1520,0 1523,1 1526,2 1529,3 1531,4 1534,4 1536,4 1536,5 1536,6 1537,6 1538,6 1538,6 1538,6 1538,6 1538,6 1539,6 1540,6 1540,6 1540,6 1544,7 1547,9 1550,12 1553,14 1556,16 1559,18 1559,18 1559,18 1560,18 1560,18 1560,18 1561,18 1563,21 1565,23 1568,24 1570,26 1573,28 1575,29 1575,30 1575,30 1576,31 1577,32 1577,33 1577,35 1579,37 1581,39 1583,41 1585,43 1586,45 1587,47 1587,47 1588,48 1588,48 1589,49 1589,49 1589,49 1591,51 1593,54 1595,58 1597,61 1598,64 1599,68 L 2101,1262 C 2113,1290 2114,1319 2103,1347 2092,1374 2072,1395 2044,1407 Z"/>
   <glyph unicode="P" horiz-adv-x="900" d="M 1132,993 C 1131,1076 1111,1150 1072,1216 1033,1282 980,1335 914,1374 848,1413 774,1433 692,1434 L 328,1434 328,1434 C 327,1434 327,1434 327,1434 326,1434 326,1434 325,1434 294,1433 268,1422 246,1401 225,1381 214,1354 213,1322 L 213,113 C 214,81 225,55 246,33 268,12 294,1 325,0 358,1 385,12 406,33 428,55 439,81 440,113 L 440,557 692,557 C 774,558 848,578 914,617 980,656 1033,708 1072,774 1111,839 1131,912 1132,993 Z M 440,1207 L 692,1207 C 753,1206 803,1185 842,1145 882,1105 903,1054 905,993 903,934 882,885 842,846 803,806 753,785 692,784 L 440,784 440,1207 Z"/>
   <glyph unicode="K" horiz-adv-x="1059" d="M 326,0 C 358,1 385,12 405,33 426,55 437,81 438,113 L 438,404 651,621 1093,41 C 1105,28 1118,18 1132,11 1147,4 1162,0 1177,0 1191,0 1203,2 1215,6 1227,11 1239,18 1249,27 1274,47 1288,73 1291,102 1294,132 1286,160 1265,184 L 811,780 1261,1229 C 1283,1253 1293,1279 1293,1310 1293,1340 1283,1366 1261,1389 1238,1411 1211,1422 1181,1422 1152,1422 1125,1411 1101,1389 L 438,723 438,1311 C 437,1341 426,1368 405,1389 385,1411 358,1422 326,1423 293,1422 266,1411 246,1389 225,1368 214,1341 213,1311 L 213,113 C 214,81 225,55 246,33 266,12 293,1 326,0 Z"/>
   <glyph unicode="G" horiz-adv-x="1218" d="M 905,0 C 993,0 1076,14 1155,42 1233,70 1305,109 1370,159 1380,167 1388,174 1395,182 1401,191 1406,199 1409,208 1409,209 1409,209 1409,209 1409,210 1409,210 1409,210 1410,212 1410,214 1411,216 1411,217 1412,219 1413,221 1414,227 1415,232 1417,237 1418,242 1419,249 1419,256 L 1419,709 C 1418,742 1407,769 1384,790 1362,811 1334,822 1300,823 1301,823 1300,823 1300,823 1300,823 1299,823 1298,823 1298,823 1298,823 1298,823 1298,823 1297,823 1296,823 L 893,823 C 860,822 833,811 811,790 789,769 777,742 776,709 777,676 789,649 811,627 833,604 860,593 893,592 L 1186,592 1186,311 C 1145,287 1101,268 1053,254 1006,240 957,233 905,233 831,233 763,246 700,272 638,298 583,335 537,383 488,429 450,483 424,543 397,603 383,667 383,735 383,805 397,870 424,931 450,991 488,1045 537,1091 583,1139 638,1176 700,1202 763,1228 831,1241 905,1241 967,1241 1025,1231 1080,1211 1135,1191 1185,1165 1229,1130 1256,1110 1285,1102 1316,1106 1348,1110 1374,1124 1394,1149 1414,1176 1422,1205 1418,1236 1414,1268 1399,1294 1372,1315 1308,1365 1236,1404 1156,1432 1077,1460 993,1474 905,1474 765,1472 638,1439 525,1374 411,1309 321,1221 253,1110 186,999 152,874 150,735 152,597 186,473 253,362 321,252 411,164 525,100 638,35 765,2 905,0 Z"/>
   <glyph unicode="F" horiz-adv-x="874" d="M 325,0 C 358,1 385,12 406,33 428,55 439,81 440,113 L 440,604 917,604 C 949,605 975,616 996,638 1018,659 1029,686 1030,719 1029,749 1018,775 996,797 975,819 949,830 917,831 L 440,831 440,1207 995,1207 C 1026,1208 1052,1219 1074,1241 1095,1262 1107,1289 1108,1322 1107,1353 1095,1379 1074,1401 1052,1422 1026,1433 995,1434 L 332,1434 C 330,1434 328,1434 328,1434 328,1434 327,1434 328,1434 327,1434 327,1434 327,1434 326,1434 326,1434 325,1434 293,1433 266,1422 246,1401 225,1379 214,1353 213,1322 L 213,113 C 214,81 225,55 246,33 266,12 293,1 325,0 Z"/>
   <glyph unicode="D" horiz-adv-x="1033" d="M 325,0 L 325,0 325,0 567,0 C 700,2 821,34 928,98 1036,162 1121,248 1185,356 1248,464 1280,585 1282,719 1280,852 1248,972 1185,1079 1121,1187 1036,1272 928,1336 821,1400 700,1432 567,1434 L 325,1434 325,1434 325,1434 C 293,1433 266,1422 246,1401 225,1381 214,1354 213,1322 L 213,112 C 214,81 225,55 246,33 266,12 293,1 325,0 Z M 440,1207 L 567,1207 C 658,1206 741,1184 814,1140 887,1097 945,1038 989,965 1032,892 1054,810 1055,719 1054,627 1032,544 989,471 945,397 887,338 814,295 741,251 658,229 567,227 L 440,227 440,1207 Z"/>
   <glyph unicode="C" horiz-adv-x="1244" d="M 901,0 C 992,0 1077,14 1157,42 1237,70 1309,109 1374,159 1399,180 1413,206 1417,237 1420,267 1413,296 1395,323 1373,348 1346,362 1315,366 1284,370 1256,363 1231,346 1185,309 1134,281 1079,262 1024,243 965,233 901,233 830,233 763,247 700,273 637,299 581,335 532,380 486,426 449,479 423,540 397,601 383,667 383,737 383,807 397,872 423,932 449,992 486,1046 532,1094 581,1139 637,1175 700,1201 763,1227 830,1241 901,1241 965,1241 1024,1231 1080,1212 1135,1193 1186,1165 1231,1128 1256,1110 1284,1103 1315,1107 1346,1110 1373,1125 1395,1151 1413,1178 1420,1206 1417,1237 1413,1267 1399,1293 1374,1315 1309,1365 1237,1404 1157,1432 1077,1460 992,1474 901,1474 763,1472 637,1438 525,1372 412,1306 322,1218 255,1108 187,997 152,874 150,737 152,600 187,475 255,365 322,254 412,166 525,101 637,35 763,2 901,0 Z"/>
   <glyph unicode="B" horiz-adv-x="900" d="M 325,0 C 326,-1 327,-1 328,-1 328,0 330,0 332,0 332,1 332,1 332,1 332,0 333,0 334,0 L 696,0 C 778,1 851,21 917,60 983,99 1035,152 1074,218 1113,284 1133,358 1134,440 1133,519 1114,590 1077,655 1039,719 990,771 928,810 952,843 971,879 985,919 998,958 1005,1000 1005,1045 1004,1117 986,1183 952,1241 917,1300 871,1346 813,1381 754,1415 689,1433 616,1434 L 334,1434 C 333,1434 332,1434 332,1434 332,1434 332,1434 332,1434 330,1434 328,1434 328,1434 327,1434 326,1434 325,1434 294,1433 268,1422 246,1401 225,1381 214,1354 213,1322 L 213,112 C 214,81 225,55 246,33 268,12 294,1 325,0 Z M 440,1207 L 616,1207 C 662,1206 701,1190 731,1160 761,1129 777,1091 778,1045 777,998 761,959 731,927 701,896 662,879 616,878 L 440,878 440,1207 Z M 440,651 L 696,651 C 756,649 806,628 845,589 885,549 906,500 907,440 906,379 885,329 845,290 806,250 756,229 696,227 L 440,227 440,651 Z"/>
   <glyph unicode=":" horiz-adv-x="292" d="M 178,137 C 179,94 194,59 222,30 251,2 286,-13 329,-14 373,-13 409,2 438,30 467,59 482,94 483,137 482,181 467,217 438,246 409,275 373,290 329,291 286,290 251,275 222,246 194,217 179,181 178,137 Z M 178,952 C 179,909 194,874 222,845 251,817 286,802 329,801 373,802 409,817 438,845 467,874 482,909 483,952 482,996 467,1032 438,1061 409,1090 373,1105 329,1106 286,1105 251,1090 222,1061 194,1032 179,996 178,952 Z"/>
   <glyph unicode="8" horiz-adv-x="953" d="M 872,895 C 894,923 911,954 922,989 934,1023 940,1060 940,1098 939,1160 924,1217 894,1267 864,1318 824,1358 773,1388 723,1418 666,1433 604,1434 540,1433 483,1418 432,1388 381,1358 340,1318 310,1267 280,1217 265,1160 264,1098 264,1060 270,1023 282,989 293,954 310,923 332,895 264,850 211,793 173,722 134,652 114,573 113,487 114,397 137,315 180,242 224,168 283,110 357,67 430,23 513,1 604,0 694,1 776,23 849,67 923,110 981,168 1024,242 1068,315 1090,397 1091,487 1090,573 1070,652 1031,722 991,793 939,850 872,895 L 872,895 Z M 604,1211 C 636,1210 662,1199 684,1178 705,1156 716,1130 717,1098 716,1065 705,1038 684,1016 662,993 636,982 604,981 570,982 543,993 521,1016 499,1038 488,1065 487,1098 488,1130 499,1156 521,1178 543,1199 570,1210 604,1211 L 604,1211 Z M 604,223 C 554,224 510,236 470,259 429,283 398,314 374,354 350,394 337,438 336,487 337,537 350,581 374,621 398,661 429,693 470,717 510,741 554,753 604,754 653,753 697,741 737,717 777,693 808,661 832,621 855,581 867,537 868,487 867,438 855,394 832,354 808,314 777,283 737,259 697,236 653,224 604,223 L 604,223 Z"/>
   <glyph unicode="6" horiz-adv-x="980" d="M 630,991 C 596,991 561,987 528,980 495,974 464,963 434,950 438,959 442,968 446,977 451,986 455,995 460,1003 478,1034 497,1061 519,1085 540,1109 564,1129 589,1147 616,1163 645,1177 677,1187 708,1197 743,1203 782,1204 815,1208 841,1221 862,1243 883,1265 893,1291 893,1323 890,1355 878,1381 856,1402 834,1422 806,1432 774,1431 715,1429 660,1420 609,1403 557,1387 510,1364 466,1335 402,1291 348,1239 305,1178 262,1118 228,1053 203,985 177,917 159,847 148,776 136,705 131,634 131,565 131,546 132,526 132,507 133,487 134,468 135,448 136,447 137,447 137,446 137,446 137,445 137,444 146,360 173,285 219,218 264,151 322,99 393,60 464,21 544,1 630,0 723,1 807,24 882,67 956,111 1016,171 1060,245 1104,319 1127,403 1128,495 1127,588 1104,672 1060,746 1016,820 956,880 882,924 807,967 723,990 630,991 Z M 630,227 C 580,227 535,240 494,263 454,287 422,319 398,359 375,400 362,445 362,495 362,545 375,591 398,631 422,672 454,704 494,729 535,753 580,765 630,766 681,765 726,753 767,729 808,704 840,672 864,631 888,591 900,545 901,495 900,445 888,400 864,359 840,319 808,287 767,263 726,240 681,227 630,227 Z"/>
   <glyph unicode="5" horiz-adv-x="874" d="M 531,1018 C 508,1018 485,1016 462,1013 439,1010 416,1006 393,1000 L 418,1203 921,1203 C 955,1204 983,1215 1004,1237 1026,1259 1037,1286 1038,1317 1037,1351 1026,1379 1004,1400 983,1422 955,1433 921,1434 L 318,1434 C 307,1434 298,1433 289,1431 281,1429 272,1426 264,1422 263,1421 262,1420 261,1420 260,1419 259,1419 258,1418 257,1417 256,1416 255,1416 254,1415 252,1414 250,1414 237,1404 226,1393 217,1379 208,1365 202,1349 199,1332 L 137,801 C 136,796 136,791 136,785 136,779 136,773 137,767 137,766 138,765 138,765 139,764 139,763 139,762 140,760 140,758 140,756 141,754 141,751 141,748 143,747 143,746 144,744 145,742 146,740 146,738 147,738 147,737 147,736 148,735 148,734 148,732 152,728 155,723 159,718 162,714 166,709 170,705 194,682 221,671 252,671 283,671 310,682 334,705 361,733 392,753 426,766 460,779 495,785 531,785 567,785 601,779 635,766 668,753 698,733 725,705 753,678 773,648 787,614 800,581 807,545 807,508 807,473 800,438 786,404 772,371 752,340 725,313 698,285 668,265 634,251 600,238 566,231 531,231 493,231 458,238 425,251 391,265 361,285 334,313 310,336 283,347 251,347 220,347 193,336 170,313 147,288 135,260 135,230 135,199 147,172 170,149 219,99 275,62 337,37 399,12 462,0 526,0 526,0 527,0 527,0 527,0 529,0 531,0 596,0 659,12 721,37 783,62 839,99 889,149 938,199 975,255 1000,317 1025,379 1038,443 1038,508 1038,574 1026,639 1001,701 976,763 939,819 889,869 839,919 783,956 721,981 659,1006 596,1018 531,1018 Z"/>
   <glyph unicode="4" horiz-adv-x="1086" d="M 1113,493 L 1093,493 1093,1323 C 1093,1325 1093,1327 1093,1329 1093,1331 1093,1333 1092,1334 1091,1336 1091,1337 1091,1339 1091,1342 1091,1345 1091,1346 1090,1348 1090,1350 1089,1352 1089,1353 1088,1354 1088,1356 1087,1357 1087,1359 1087,1360 1086,1363 1085,1365 1085,1367 1084,1369 1084,1370 1083,1372 1082,1373 1081,1375 1080,1376 1079,1378 1079,1379 1079,1381 1077,1384 1075,1386 1074,1387 1073,1389 1071,1390 1070,1391 1069,1392 1068,1393 1067,1395 1066,1397 1065,1398 1064,1399 1063,1400 1062,1401 1061,1402 1060,1404 1058,1405 1056,1407 1056,1408 1055,1409 1054,1410 1052,1411 1051,1411 1050,1411 1050,1412 1050,1413 1049,1413 1048,1413 1048,1413 1048,1413 1046,1414 1044,1415 1043,1416 1041,1418 1040,1419 1038,1420 1037,1421 1035,1422 1033,1423 1032,1424 1030,1426 1028,1428 1026,1428 1025,1428 1023,1429 1022,1429 1020,1430 1019,1430 1017,1431 1015,1431 1012,1432 1010,1432 1008,1433 1007,1434 1005,1433 1003,1432 1002,1432 1001,1432 999,1433 997,1434 996,1434 994,1434 991,1434 989,1434 987,1434 985,1434 984,1434 983,1434 983,1434 982,1434 981,1434 981,1434 979,1434 979,1434 978,1434 977,1434 976,1434 976,1434 974,1434 972,1434 969,1434 967,1434 964,1434 962,1434 961,1434 960,1434 958,1434 956,1434 955,1434 954,1434 951,1433 948,1432 946,1432 944,1431 943,1431 942,1430 940,1430 938,1429 937,1428 936,1427 934,1426 933,1424 931,1424 928,1423 927,1422 925,1422 923,1421 921,1420 920,1419 919,1418 917,1416 916,1415 914,1414 913,1413 912,1412 911,1411 909,1410 908,1409 906,1408 903,1407 902,1405 901,1404 900,1402 899,1401 898,1400 897,1399 896,1397 895,1395 895,1394 894,1393 894,1393 893,1393 L 135,450 C 115,424 107,397 110,367 113,338 128,313 153,293 164,284 175,277 187,273 198,270 211,268 223,268 223,268 223,268 224,268 225,268 225,268 225,268 225,268 225,268 226,268 227,268 227,268 227,268 L 868,268 868,112 C 869,80 880,54 901,33 921,12 948,1 981,0 1013,1 1040,12 1060,33 1081,54 1092,80 1093,113 L 1093,268 1113,268 C 1146,269 1174,280 1195,301 1217,322 1228,349 1229,381 1228,413 1217,439 1195,461 1174,482 1147,493 1114,494 L 1113,493 Z M 869,494 L 462,494 869,1000 869,494 Z"/>
   <glyph unicode="2" horiz-adv-x="927" d="M 947,227 L 511,227 897,578 C 951,627 991,683 1018,746 1045,810 1059,875 1059,943 1059,1002 1049,1060 1028,1117 1007,1174 975,1226 932,1272 883,1326 827,1366 764,1393 701,1420 635,1434 568,1434 509,1434 451,1424 394,1403 337,1382 285,1350 238,1307 L 175,1250 C 151,1228 139,1201 138,1172 136,1142 146,1115 166,1090 189,1067 215,1054 245,1052 274,1051 302,1061 326,1082 L 390,1139 C 416,1162 444,1179 474,1190 505,1201 536,1207 568,1207 604,1207 639,1200 673,1186 707,1172 737,1151 764,1121 787,1095 804,1067 815,1037 826,1007 832,975 832,943 832,905 825,870 811,836 797,803 776,773 746,746 L 140,196 C 117,174 105,148 104,118 102,88 112,61 134,37 144,25 157,15 172,9 187,3 202,0 218,0 218,0 218,0 219,0 219,0 220,0 220,0 221,0 221,0 222,0 222,0 222,0 222,0 L 947,0 C 979,1 1006,12 1026,33 1047,53 1058,80 1059,112 1058,145 1047,172 1026,193 1006,215 979,226 947,227 Z"/>
   <glyph unicode="1" horiz-adv-x="477" d="M 559,1329 C 557,1331 556,1333 555,1336 555,1338 555,1341 555,1344 555,1345 554,1346 554,1348 553,1350 553,1352 553,1354 552,1355 551,1356 551,1358 550,1360 550,1362 549,1364 549,1366 548,1368 547,1369 547,1371 546,1372 545,1374 545,1375 544,1376 544,1378 543,1379 543,1380 543,1381 543,1381 542,1381 542,1383 541,1384 541,1385 541,1385 539,1386 538,1387 536,1389 535,1390 533,1392 532,1393 531,1395 530,1397 529,1398 528,1399 527,1400 526,1401 525,1402 524,1404 523,1405 522,1407 520,1408 518,1409 517,1410 516,1411 514,1412 512,1413 511,1414 510,1415 508,1416 506,1418 505,1419 504,1420 503,1421 502,1422 500,1422 498,1422 496,1423 495,1424 492,1426 489,1428 488,1429 487,1429 485,1430 484,1430 482,1430 481,1430 479,1431 478,1432 476,1433 474,1433 472,1434 469,1434 468,1433 467,1432 465,1432 463,1432 462,1433 461,1434 459,1434 457,1434 454,1434 452,1434 450,1434 447,1434 446,1434 446,1434 446,1434 445,1434 445,1434 444,1434 442,1434 440,1434 438,1434 436,1435 434,1435 431,1435 429,1435 426,1435 424,1434 423,1434 422,1434 420,1434 418,1433 417,1433 416,1432 414,1432 412,1431 410,1431 408,1430 406,1430 404,1430 402,1429 400,1427 398,1426 397,1425 395,1424 393,1424 392,1423 391,1422 389,1422 388,1421 386,1421 385,1420 L 133,1270 C 106,1253 89,1230 82,1201 75,1171 80,1143 97,1116 107,1097 121,1083 138,1073 155,1064 173,1059 193,1059 202,1058 212,1060 221,1062 231,1065 241,1069 250,1075 L 332,1122 332,113 C 333,80 344,54 365,33 385,12 412,1 444,0 476,1 503,12 525,33 547,54 558,80 559,113 L 559,1323 C 559,1325 559,1327 559,1329 Z"/>
   <glyph unicode="." horiz-adv-x="292" d="M 168,137 C 169,94 184,59 212,30 241,2 276,-13 319,-14 363,-13 399,2 428,30 457,59 472,94 473,137 472,181 457,217 428,246 399,275 363,290 319,291 276,290 241,275 212,246 184,217 169,181 168,137 Z"/>
   <glyph unicode="-" horiz-adv-x="610" d="M 256,506 L 641,506 C 675,507 703,519 726,542 749,565 761,593 762,627 761,662 749,691 726,714 703,737 675,749 641,750 L 256,750 C 222,749 194,737 171,714 148,691 136,662 135,627 136,593 148,565 171,542 194,519 222,507 256,506 Z"/>
   <glyph unicode="," horiz-adv-x="345" d="M 111,-240 C 110,-255 116,-269 126,-280 137,-291 153,-296 174,-297 204,-297 236,-289 271,-273 306,-257 338,-236 367,-209 398,-176 423,-136 440,-87 458,-38 467,21 467,90 L 467,113 C 466,169 453,212 428,244 402,276 366,292 319,293 277,292 243,279 218,254 193,228 181,195 180,156 L 180,139 C 181,102 193,72 216,48 239,24 266,8 297,0 299,-45 288,-83 264,-114 240,-145 205,-169 158,-184 144,-187 133,-194 124,-203 115,-213 111,-225 111,-240 Z"/>
   <glyph unicode="!" horiz-adv-x="213" d="M 304,381 C 335,381 361,392 382,413 402,434 413,461 414,493 L 414,1321 C 413,1353 402,1379 382,1401 361,1422 335,1433 304,1434 272,1433 246,1422 224,1401 203,1379 192,1353 191,1321 L 191,493 C 192,461 203,434 224,413 246,392 272,381 304,381 Z M 414,113 L 414,153 C 413,185 402,211 382,233 361,254 335,265 304,266 272,265 246,254 224,233 203,211 192,185 191,153 L 191,113 C 192,80 203,53 224,33 246,12 272,1 304,0 335,1 361,12 382,33 402,53 413,80 414,113 Z"/>
   <glyph unicode=" " horiz-adv-x="609"/>
  </font>
 </defs>
 <defs>
  <font id="EmbeddedFont_3" horiz-adv-x="2048">
   <font-face font-family="Quicksand Book embedded" units-per-em="2048" font-weight="normal" font-style="normal" ascent="1879" descent="423"/>
   <missing-glyph horiz-adv-x="2048" d="M 0,0 L 2047,0 2047,2047 0,2047 0,0 Z"/>
   <glyph unicode="y" horiz-adv-x="795" d="M 107,410 C 108,334 126,265 162,204 199,142 247,94 308,57 369,21 437,2 512,0 575,1 633,14 686,39 739,65 785,100 823,143 L 823,78 C 822,8 804,-54 770,-110 737,-166 692,-210 635,-243 578,-276 515,-292 444,-293 416,-293 387,-290 359,-283 332,-276 305,-267 281,-254 268,-251 256,-251 244,-255 233,-259 224,-267 217,-279 211,-290 210,-302 214,-314 218,-327 226,-336 238,-344 269,-358 303,-370 337,-378 372,-387 408,-391 444,-391 533,-390 614,-369 685,-327 757,-286 814,-230 856,-160 898,-89 920,-10 921,78 L 921,392 921,410 921,957 C 921,960 920,963 919,967 918,971 917,974 915,977 914,980 912,983 909,986 907,989 905,992 903,994 899,996 894,998 890,1000 886,1001 882,1003 878,1004 L 872,1004 866,1004 C 865,1003 864,1003 863,1002 862,1001 861,1001 860,1001 L 856,1001 C 853,1000 849,998 846,996 842,994 840,992 837,989 836,989 836,988 835,988 835,987 834,987 833,987 833,986 833,985 832,984 832,982 831,981 831,980 828,977 826,973 825,969 824,964 823,960 823,956 L 823,410 C 822,352 807,299 780,253 752,206 715,169 669,142 622,115 570,101 512,100 455,101 403,115 357,142 311,169 274,206 247,253 220,299 206,352 205,410 L 205,956 C 205,970 200,981 190,990 181,999 169,1004 154,1004 141,1004 130,999 121,990 112,982 107,970 107,957 L 107,410 Z"/>
   <glyph unicode="u" horiz-adv-x="795" d="M 170,409 L 170,409 C 171,333 189,265 225,203 261,142 309,93 370,56 431,20 499,1 575,0 L 575,0 C 653,1 722,20 784,56 846,93 895,142 931,203 968,265 986,333 987,409 L 987,957 987,957 C 987,971 982,983 972,992 963,1001 951,1006 936,1006 L 936,1006 C 923,1006 912,1001 902,992 893,983 888,971 887,957 L 887,957 887,409 887,409 C 886,351 872,299 845,253 817,206 780,169 733,141 686,114 634,99 575,98 L 575,98 C 518,99 466,114 420,141 374,169 337,206 310,253 283,299 269,351 268,409 L 268,957 268,957 C 268,971 263,983 253,992 244,1001 233,1006 219,1006 L 219,1006 C 205,1006 194,1001 185,992 175,983 170,971 170,957 L 170,409 Z"/>
   <glyph unicode="t" horiz-adv-x="451" d="M 491,1003 L 362,1003 362,1376 C 361,1389 356,1400 345,1410 335,1419 323,1424 309,1425 296,1424 285,1419 275,1410 266,1400 261,1389 260,1376 L 260,1003 135,1003 C 112,1002 97,997 92,988 87,978 85,967 86,954 85,941 87,930 92,920 97,911 112,906 135,905 L 260,905 260,174 C 261,123 278,81 310,49 343,18 385,1 436,0 449,1 460,6 470,15 481,25 486,36 487,49 486,62 481,74 470,84 460,94 449,100 436,100 422,100 406,107 390,119 373,131 363,150 362,174 L 362,905 491,905 C 504,906 515,911 525,920 534,930 540,941 540,954 540,967 534,978 525,988 515,997 504,1002 491,1003 Z"/>
   <glyph unicode="s" horiz-adv-x="742" d="M 127,143 L 127,143 C 154,121 187,99 224,77 261,56 302,38 348,23 394,9 444,1 498,0 L 498,0 C 547,0 592,7 633,21 675,34 713,54 748,80 L 748,80 C 782,105 809,135 830,169 851,202 862,240 862,282 L 862,282 C 862,325 851,364 830,400 810,436 783,465 750,487 L 750,487 C 715,507 678,523 638,537 598,551 554,562 506,569 L 502,569 502,569 C 456,576 416,586 382,598 348,610 319,623 297,639 L 297,639 C 278,654 263,669 254,685 244,701 240,719 240,739 L 240,739 C 240,760 245,780 256,799 267,819 283,837 303,854 L 303,854 C 325,871 352,885 384,895 416,906 452,911 494,911 L 494,911 C 542,910 586,899 626,879 665,859 703,836 739,811 L 739,811 C 751,804 763,801 776,804 789,807 799,814 807,825 L 807,825 C 814,837 816,849 814,862 811,875 804,886 793,895 L 793,895 C 754,921 711,945 662,967 614,990 558,1001 494,1003 L 494,1003 C 442,1003 396,997 355,985 313,973 278,956 248,936 L 248,936 C 216,912 189,883 170,850 150,816 140,779 139,739 L 139,739 C 140,700 150,665 170,634 189,602 216,578 248,559 L 248,559 C 277,539 311,523 349,511 388,499 430,489 475,481 L 479,479 479,479 C 528,471 571,460 606,448 642,436 671,422 692,405 L 692,405 C 717,384 736,364 747,345 757,326 763,305 764,282 L 764,282 C 764,259 757,237 744,216 732,195 713,176 688,159 L 688,159 C 665,141 638,126 605,115 573,104 537,98 498,98 L 498,98 C 434,100 375,113 323,137 270,162 226,187 190,215 L 190,215 C 179,224 166,228 153,226 140,225 129,219 121,209 L 121,209 C 113,198 109,187 110,175 111,163 117,153 127,143 Z"/>
   <glyph unicode="r" horiz-adv-x="557" d="M 191,49 C 191,35 196,23 206,14 215,5 227,0 242,0 255,0 266,5 275,14 284,23 289,35 289,49 L 289,489 C 289,491 289,494 289,496 290,499 291,502 293,506 300,528 314,561 333,604 353,648 380,693 414,739 448,786 489,824 536,855 583,886 640,902 705,903 718,903 730,908 739,918 749,927 753,938 754,952 753,967 749,978 739,987 730,996 718,1001 705,1001 641,1000 583,988 532,964 481,940 436,909 398,872 360,835 329,796 303,756 300,752 298,747 295,743 293,739 291,735 289,731 L 289,952 C 289,967 284,978 275,987 266,996 255,1001 242,1001 227,1001 215,996 206,987 196,978 191,967 191,952 L 191,49 Z"/>
   <glyph unicode="p" horiz-adv-x="954" d="M 191,-371 C 191,-384 196,-396 206,-405 215,-415 226,-420 240,-420 255,-420 267,-415 276,-405 286,-396 291,-384 291,-371 L 291,202 C 335,142 390,95 455,60 521,25 593,7 672,6 763,7 845,30 918,75 991,120 1049,180 1091,255 1134,330 1156,414 1157,506 1156,598 1134,682 1091,757 1049,831 991,891 918,935 845,979 763,1002 672,1003 593,1002 521,984 455,950 390,915 335,868 291,809 L 291,954 C 291,968 286,979 276,988 267,998 255,1003 240,1003 226,1003 215,998 206,988 196,979 191,968 191,954 L 191,526 191,506 191,485 191,-371 Z M 291,522 C 294,594 314,658 348,715 383,773 429,818 485,852 541,885 604,902 672,903 744,902 809,884 866,849 924,814 970,767 1005,707 1039,647 1056,580 1057,506 1056,431 1039,364 1005,304 970,243 924,196 866,160 809,124 744,105 672,104 602,105 539,124 481,160 424,196 378,243 344,304 309,364 292,431 291,506 L 291,522 Z"/>
   <glyph unicode="o" horiz-adv-x="927" d="M 144,501 L 144,501 C 145,410 167,326 209,250 251,175 308,115 379,70 450,24 530,1 619,0 L 619,0 C 707,1 788,24 859,70 930,115 987,175 1029,250 1071,326 1092,410 1093,501 L 1093,501 C 1092,593 1071,677 1029,753 987,828 930,888 859,933 788,979 707,1002 619,1003 L 619,1003 C 530,1002 450,979 379,933 308,888 251,828 209,753 167,677 145,593 144,501 Z M 242,501 L 242,501 C 243,577 260,645 294,706 328,767 373,815 430,852 487,888 549,906 619,907 L 619,907 C 688,906 750,888 807,852 864,815 909,767 943,706 977,645 994,577 995,501 L 995,501 C 994,426 977,358 943,298 909,237 864,189 807,153 750,117 688,99 619,98 L 619,98 C 549,99 487,117 430,153 373,189 328,237 294,298 260,358 243,426 242,501 Z"/>
   <glyph unicode="n" horiz-adv-x="795" d="M 907,49 C 907,35 912,23 922,14 931,5 942,0 956,0 970,0 981,5 990,14 1000,23 1005,35 1005,49 L 1005,594 C 1004,669 986,737 949,799 913,860 865,909 804,945 742,981 674,1000 598,1001 535,1000 477,987 423,961 370,936 324,900 287,856 L 287,952 C 287,966 282,977 273,986 265,996 254,1001 240,1001 225,1001 214,996 205,986 196,977 191,966 191,952 L 191,610 191,594 191,49 191,37 C 191,37 191,36 192,36 193,35 193,34 193,33 193,32 193,31 193,30 194,29 194,28 195,27 198,20 203,15 208,10 214,6 221,2 228,0 L 240,0 C 247,0 254,2 261,5 267,8 273,12 277,18 280,22 282,25 283,29 285,33 286,37 287,41 L 287,49 287,594 C 289,651 304,703 332,750 359,796 397,833 443,861 489,888 541,902 598,903 656,902 708,888 755,861 801,833 838,796 865,750 892,703 906,651 907,594 L 907,49 Z"/>
   <glyph unicode="m" horiz-adv-x="1509" d="M 1626,47 C 1626,34 1631,24 1640,14 1648,5 1659,0 1673,0 1688,0 1699,5 1708,14 1717,24 1722,34 1722,47 L 1722,594 C 1721,670 1703,738 1666,799 1630,861 1582,909 1520,945 1459,982 1390,1000 1314,1001 1237,1000 1166,980 1103,942 1040,904 991,853 954,788 918,853 870,904 807,942 745,980 675,1000 596,1001 533,1000 475,988 422,962 369,937 324,902 287,858 L 287,954 C 287,968 282,979 273,987 264,996 253,1001 238,1001 225,1001 214,996 205,987 196,979 191,968 191,954 L 191,610 191,594 191,47 191,37 C 194,27 200,19 207,12 214,5 223,1 232,0 L 238,0 244,0 C 246,-1 248,-1 249,-1 250,-1 251,-1 252,0 254,0 257,1 259,2 262,4 263,5 265,6 272,10 277,16 281,23 285,29 287,37 287,45 L 287,593 C 288,651 302,703 329,750 356,797 393,834 439,862 486,890 538,904 596,905 654,904 706,890 753,862 799,834 836,797 863,750 890,703 904,651 905,593 L 905,45 905,43 905,37 C 906,36 907,35 907,34 907,33 907,32 907,31 908,30 909,29 909,28 909,27 909,27 909,27 910,26 911,25 911,25 911,24 911,24 911,23 912,23 913,22 913,21 914,20 914,20 915,18 L 921,12 C 922,11 923,10 924,10 925,9 926,8 927,8 930,6 932,4 934,3 936,1 938,0 940,0 940,1 940,1 941,1 942,0 943,0 944,0 L 948,0 954,0 C 962,0 970,2 978,6 984,9 989,13 993,17 997,22 1001,27 1003,33 L 1003,37 C 1003,37 1003,37 1004,38 1005,39 1005,40 1005,41 L 1005,47 1005,594 C 1006,651 1020,703 1047,750 1075,797 1112,834 1159,862 1205,890 1257,904 1314,905 1372,904 1425,890 1471,862 1517,834 1554,797 1582,750 1609,703 1624,651 1626,594 L 1626,47 Z"/>
   <glyph unicode="l" horiz-adv-x="80" d="M 205,49 L 205,49 C 205,36 210,24 220,15 229,5 240,0 254,0 L 254,0 C 269,0 281,5 290,15 300,24 305,36 305,49 L 305,1385 305,1385 C 305,1398 300,1410 290,1419 281,1429 269,1434 254,1434 L 254,1434 C 240,1434 229,1429 220,1419 210,1410 205,1398 205,1385 L 205,49 Z"/>
   <glyph unicode="k" horiz-adv-x="769" d="M 191,49 C 191,36 196,24 206,15 215,5 226,0 240,0 255,0 267,5 276,15 286,24 291,36 291,49 L 291,279 496,483 881,19 C 885,11 891,7 898,4 905,1 912,0 920,0 925,0 930,1 936,2 942,4 947,6 952,10 963,21 968,33 969,45 970,58 966,70 957,82 L 567,555 954,942 C 965,953 970,965 970,978 970,991 965,1002 954,1012 944,1022 932,1027 920,1027 907,1027 895,1022 885,1012 L 291,420 291,1385 C 291,1398 286,1410 276,1419 267,1429 255,1434 240,1434 226,1434 215,1429 206,1419 196,1410 191,1398 191,1385 L 191,49 Z"/>
   <glyph unicode="i" horiz-adv-x="81" d="M 193,49 L 193,49 C 193,36 198,24 208,15 217,5 228,0 242,0 L 242,0 C 257,0 269,5 278,15 288,24 293,36 293,49 L 293,954 293,954 C 293,969 288,981 278,990 269,998 257,1003 242,1003 L 242,1003 C 228,1003 217,998 208,990 198,981 193,969 193,954 L 193,49 Z M 193,1235 L 193,1235 C 193,1220 198,1207 208,1197 217,1187 228,1182 242,1181 L 242,1181 C 257,1182 269,1187 278,1197 288,1207 293,1220 293,1235 L 293,1282 293,1282 C 293,1295 288,1307 278,1316 269,1326 257,1331 242,1331 L 242,1331 C 228,1331 217,1326 208,1316 198,1307 193,1295 193,1282 L 193,1235 Z"/>
   <glyph unicode="h" horiz-adv-x="821" d="M 928,49 C 928,36 933,24 943,15 952,5 963,0 977,0 992,0 1004,5 1013,15 1023,24 1028,36 1028,49 L 1028,608 C 1027,686 1008,754 971,813 933,872 883,919 820,952 757,985 687,1002 608,1003 544,1002 485,989 431,963 376,937 329,901 291,856 L 291,1385 C 291,1398 286,1410 276,1419 267,1429 255,1434 240,1434 226,1434 215,1429 206,1419 196,1410 191,1398 191,1385 L 191,625 191,608 191,49 C 191,46 191,43 191,41 192,39 192,36 193,33 194,30 195,27 196,25 198,22 199,19 201,16 206,11 212,7 219,4 226,2 233,0 240,0 L 246,0 250,0 C 251,0 252,0 253,1 254,2 254,2 254,2 269,6 279,14 285,27 286,28 286,29 287,30 287,31 288,33 289,35 289,36 289,37 290,38 291,39 291,41 291,43 L 291,49 291,608 C 292,667 306,719 335,763 363,807 401,841 449,866 497,890 550,903 608,903 668,903 722,890 770,866 818,841 856,807 884,763 913,719 927,667 928,608 L 928,49 Z"/>
   <glyph unicode="g" horiz-adv-x="927" d="M 1067,954 C 1067,968 1062,979 1053,988 1044,998 1033,1003 1020,1003 1005,1003 993,998 984,988 974,979 969,968 969,954 L 969,954 969,807 C 926,867 872,914 808,949 743,984 672,1002 594,1003 506,1002 426,979 355,934 285,889 228,830 187,755 145,680 124,597 123,506 124,412 145,328 187,253 228,178 285,118 355,74 426,30 506,7 594,6 672,7 743,24 808,59 872,93 926,141 969,202 L 969,80 C 968,10 951,-53 918,-109 885,-165 840,-209 784,-242 728,-275 664,-292 594,-293 563,-293 535,-290 508,-284 481,-278 455,-268 430,-256 417,-249 405,-248 393,-252 380,-256 371,-265 364,-279 359,-290 358,-302 362,-314 367,-327 374,-336 385,-344 418,-358 452,-370 486,-378 521,-387 557,-391 594,-391 682,-390 762,-369 833,-327 904,-285 961,-229 1003,-158 1045,-87 1066,-8 1067,80 L 1067,954 Z M 594,102 C 525,103 462,121 406,156 350,192 305,240 272,301 239,361 222,430 221,506 222,581 239,648 272,708 305,768 350,816 406,851 462,886 525,904 594,905 664,904 727,886 783,851 840,816 884,768 918,708 951,648 968,581 969,506 968,430 951,361 918,301 884,240 840,192 783,156 727,121 664,103 594,102 Z"/>
   <glyph unicode="f" horiz-adv-x="478" d="M 584,1434 C 544,1434 506,1429 471,1418 436,1407 406,1389 381,1363 358,1335 342,1302 332,1263 322,1224 317,1179 316,1127 L 316,1020 183,1020 C 169,1020 157,1015 148,1005 138,996 134,985 133,971 134,956 138,944 148,935 157,925 169,920 182,920 L 316,920 316,49 C 316,35 321,24 331,15 340,5 352,0 367,0 381,0 392,5 401,15 411,24 416,35 416,49 L 416,920 557,920 C 572,920 584,925 594,935 603,944 608,956 608,971 608,985 603,996 594,1005 584,1015 572,1020 557,1020 L 416,1020 416,1127 C 416,1174 420,1210 428,1237 436,1263 445,1283 457,1295 467,1307 482,1317 502,1324 522,1331 549,1334 584,1334 598,1334 609,1339 618,1349 628,1358 633,1369 633,1383 633,1398 628,1410 618,1419 609,1429 598,1434 584,1434 Z"/>
   <glyph unicode="e" horiz-adv-x="953" d="M 606,0 C 692,1 770,22 840,62 911,103 968,158 1012,227 1019,240 1020,252 1017,265 1014,278 1007,288 995,297 984,303 973,305 960,302 948,300 937,292 930,280 895,223 849,179 792,147 736,115 674,98 606,98 536,99 473,116 416,149 358,182 312,228 276,286 241,344 221,409 217,483 L 1040,483 C 1054,483 1065,487 1075,496 1084,504 1089,514 1089,528 L 1089,534 1089,536 C 1082,624 1056,704 1012,774 969,844 912,899 842,940 771,981 693,1002 606,1003 515,1002 433,979 360,934 287,890 228,829 185,754 142,678 120,593 119,499 120,407 142,323 185,248 228,173 287,113 360,69 433,24 515,1 606,0 Z M 606,905 C 668,905 726,890 778,862 831,835 876,796 912,747 948,699 971,642 983,579 L 223,579 C 236,643 261,699 297,748 333,797 378,835 431,863 484,891 543,905 606,905 Z"/>
   <glyph unicode="d" horiz-adv-x="927" d="M 993,49 C 993,35 998,24 1008,15 1017,5 1029,0 1044,0 1058,0 1069,5 1078,15 1088,24 1093,35 1093,49 L 1093,499 1093,520 1093,1385 C 1093,1398 1088,1410 1078,1419 1069,1429 1058,1434 1044,1434 1029,1434 1017,1429 1008,1419 998,1410 993,1398 993,1385 L 993,807 C 948,867 893,914 827,949 760,984 688,1002 608,1003 517,1002 435,979 362,934 289,890 231,829 189,754 146,678 124,593 123,499 124,407 146,323 189,248 231,173 289,113 362,69 435,24 517,1 608,0 688,1 760,18 827,53 893,87 948,134 993,194 L 993,49 Z M 608,100 C 537,101 472,119 414,154 357,190 310,238 276,298 241,358 224,425 223,499 224,575 241,643 276,703 310,764 357,812 414,848 472,884 537,902 608,903 678,902 741,885 798,850 855,816 901,770 936,712 970,654 990,588 993,516 L 993,483 C 990,411 970,347 936,289 901,231 855,186 798,152 741,118 678,101 608,100 Z"/>
   <glyph unicode="c" horiz-adv-x="821" d="M 635,0 L 635,0 635,0 635,0 C 695,0 752,10 805,29 859,47 908,73 950,106 L 950,106 C 962,116 970,127 971,140 973,154 970,166 960,178 L 960,178 C 952,187 941,193 929,195 916,197 904,194 893,186 L 893,186 893,186 C 857,158 817,137 773,121 729,106 683,98 635,98 L 635,98 C 556,99 485,117 423,153 360,189 310,237 273,298 237,359 218,428 217,504 L 217,504 C 218,578 237,646 273,706 310,767 360,816 423,852 485,888 556,906 635,907 L 635,907 C 683,907 729,899 773,884 817,868 857,846 893,817 L 893,817 C 904,809 916,806 929,808 941,810 952,816 960,825 L 960,825 C 969,837 973,849 972,862 970,875 965,885 954,893 L 954,893 C 910,928 860,955 806,974 752,993 695,1003 635,1003 L 635,1003 C 538,1002 451,979 374,935 296,891 235,832 189,757 143,682 120,597 119,504 L 119,504 C 120,408 143,323 189,247 235,172 296,112 374,68 451,24 538,1 635,0 Z"/>
   <glyph unicode="b" horiz-adv-x="954" d="M 191,49 C 191,35 196,24 206,15 215,5 226,0 240,0 255,0 267,5 276,15 286,24 291,35 291,49 L 291,194 C 336,134 391,87 457,53 524,18 596,1 676,0 767,1 849,24 922,69 995,113 1053,173 1095,248 1138,323 1160,407 1161,499 1160,593 1138,678 1095,754 1053,829 995,890 922,934 849,979 767,1002 676,1003 596,1002 524,984 457,949 391,914 336,867 291,807 L 291,1385 C 291,1398 286,1410 276,1419 267,1429 255,1434 240,1434 226,1434 215,1429 206,1419 196,1410 191,1398 191,1385 L 191,520 191,499 191,479 191,49 Z M 291,516 C 294,588 314,654 348,712 383,770 429,816 486,850 543,885 606,902 676,903 748,902 813,884 871,848 928,812 974,764 1009,703 1043,643 1060,575 1061,499 1060,425 1043,358 1009,298 974,238 928,190 871,154 813,119 748,101 676,100 605,101 540,119 482,154 425,190 378,238 344,298 309,358 292,425 291,499 L 291,516 Z"/>
   <glyph unicode="a" horiz-adv-x="927" d="M 983,1003 C 969,1003 958,998 949,989 939,980 934,969 934,954 L 934,807 C 890,867 836,914 771,949 706,984 635,1002 557,1003 468,1002 388,979 316,934 245,889 188,829 146,753 104,678 83,594 82,501 83,409 104,325 146,249 188,174 245,114 316,69 388,24 468,1 557,0 635,1 706,19 771,55 836,90 890,138 934,198 L 934,49 C 934,35 939,24 949,15 958,5 969,0 983,0 997,0 1008,5 1017,15 1027,24 1032,35 1032,49 L 1032,954 C 1032,969 1027,980 1017,989 1008,998 997,1003 983,1003 Z M 557,98 C 488,99 425,117 368,152 311,188 266,236 232,297 198,357 181,426 180,501 181,577 198,646 232,707 266,768 311,816 368,852 425,888 488,906 557,907 627,906 690,888 747,852 803,816 849,768 882,707 916,646 933,577 934,501 933,426 916,357 882,297 849,236 803,188 747,152 690,117 627,99 557,98 Z"/>
   <glyph unicode="N" horiz-adv-x="1033" d="M 1178,27 C 1179,25 1181,23 1182,22 1184,21 1185,19 1186,18 1191,12 1197,8 1203,5 1210,2 1217,0 1225,0 1240,0 1252,5 1261,15 1271,24 1276,36 1276,49 L 1276,1370 C 1276,1384 1271,1395 1261,1405 1252,1414 1240,1419 1225,1419 1211,1419 1200,1414 1191,1405 1181,1395 1176,1384 1176,1370 L 1176,203 307,1407 C 299,1418 288,1425 275,1427 262,1429 249,1426 237,1419 228,1412 222,1404 219,1394 216,1384 216,1374 219,1364 L 219,49 C 219,36 224,24 234,15 243,5 254,0 268,0 282,0 293,5 302,15 312,24 317,36 317,49 L 317,1223 1178,27 Z"/>
   <glyph unicode="I" horiz-adv-x="80" d="M 228,49 L 228,49 C 228,36 233,24 243,15 252,5 263,0 277,0 L 277,0 C 292,0 304,5 313,15 323,24 328,36 328,49 L 328,1385 328,1385 C 328,1398 323,1410 313,1419 304,1429 292,1434 277,1434 L 277,1434 C 263,1434 252,1429 243,1419 233,1410 228,1398 228,1385 L 228,49 Z"/>
   <glyph unicode="G" horiz-adv-x="1191" d="M 1274,645 L 1274,223 C 1220,184 1161,153 1097,132 1032,111 965,100 895,100 774,101 665,130 569,186 472,241 395,317 338,411 280,505 251,611 250,729 251,845 280,950 338,1044 395,1138 472,1213 569,1268 665,1324 774,1353 895,1354 972,1354 1045,1341 1113,1317 1181,1292 1242,1258 1294,1215 1307,1206 1320,1203 1333,1205 1346,1206 1357,1212 1366,1223 1375,1234 1378,1246 1376,1260 1375,1274 1369,1285 1360,1293 1295,1343 1224,1383 1146,1411 1068,1439 984,1453 895,1454 756,1452 631,1419 519,1355 407,1290 318,1203 252,1094 186,985 152,863 150,729 152,592 186,469 252,360 318,251 407,164 519,100 631,35 756,2 895,0 984,0 1067,14 1145,41 1223,68 1294,107 1358,157 1363,162 1367,167 1370,173 1373,180 1375,187 1376,194 L 1376,202 1376,694 C 1376,708 1371,719 1363,729 1354,738 1344,744 1331,745 L 1325,745 883,745 C 868,745 856,740 846,730 837,721 832,709 832,694 832,679 837,668 846,659 856,650 868,645 883,645 L 1274,645 Z"/>
   <glyph unicode="E" horiz-adv-x="821" d="M 213,49 C 213,35 218,24 226,15 235,6 245,1 258,0 L 262,0 268,0 999,0 C 1014,0 1025,5 1034,15 1043,24 1048,35 1048,49 1048,64 1043,76 1034,85 1025,95 1014,100 999,100 L 313,100 313,666 913,666 C 927,666 938,671 948,681 957,690 962,701 962,715 962,730 957,742 948,751 938,761 927,766 913,766 L 313,766 313,1334 999,1334 C 1014,1334 1025,1339 1034,1349 1043,1358 1048,1370 1048,1385 1048,1399 1043,1410 1034,1419 1025,1429 1014,1434 999,1434 L 266,1434 262,1434 C 248,1434 237,1429 228,1419 218,1410 213,1399 213,1385 L 213,49 Z"/>
   <glyph unicode="A" horiz-adv-x="1086" d="M 1124,33 C 1129,23 1135,14 1144,9 1153,3 1162,0 1171,0 1174,-1 1177,-1 1180,-1 1183,0 1186,0 1190,0 1202,6 1211,15 1216,28 1221,40 1221,53 1217,66 L 719,1396 C 716,1406 709,1413 700,1418 691,1424 681,1427 670,1427 659,1427 649,1424 641,1418 632,1413 625,1406 621,1396 L 123,66 C 118,53 118,40 124,28 130,15 139,6 152,0 155,1 158,1 162,1 165,0 168,0 170,0 180,0 190,3 198,9 207,14 213,23 217,33 L 344,371 997,371 1124,33 Z M 672,1241 L 961,471 381,471 672,1241 Z"/>
   <glyph unicode="@" horiz-adv-x="1403" d="M 109,719 C 111,584 143,463 207,355 270,247 356,161 464,98 572,34 693,2 827,0 858,0 888,2 918,6 948,10 976,15 1004,22 1018,25 1028,32 1035,44 1042,55 1043,68 1039,82 1037,96 1031,106 1019,112 1008,118 995,119 981,116 956,109 930,105 905,103 880,101 854,100 827,100 713,101 609,130 516,185 423,240 349,314 294,407 239,500 210,604 209,719 210,833 239,936 294,1029 349,1121 423,1195 516,1250 609,1305 713,1333 827,1334 941,1333 1045,1305 1138,1250 1230,1195 1304,1121 1359,1029 1414,936 1443,833 1444,719 1444,668 1438,618 1427,571 1416,523 1399,479 1376,438 1374,430 1367,419 1356,405 1345,390 1331,375 1314,361 1297,347 1278,337 1258,332 L 1241,332 C 1231,332 1223,334 1217,336 1212,339 1207,342 1204,346 1201,353 1198,360 1195,369 1192,377 1191,385 1192,391 L 1190,391 1190,692 1190,703 1190,719 C 1189,790 1173,854 1141,911 1109,969 1066,1015 1012,1049 957,1083 896,1101 827,1102 759,1101 697,1083 642,1049 587,1015 543,969 511,911 478,854 462,790 461,719 462,648 478,583 511,525 543,467 587,420 642,385 697,351 759,333 827,332 881,332 930,343 974,365 1019,386 1058,416 1092,454 L 1092,385 C 1092,368 1095,351 1101,335 1106,318 1114,302 1125,287 1136,271 1151,258 1171,248 1190,237 1214,232 1241,231 1247,231 1254,231 1261,232 1268,232 1275,234 1282,236 1322,248 1356,266 1383,290 1410,314 1430,335 1444,356 1458,376 1467,388 1469,391 1493,439 1512,491 1525,546 1537,601 1544,658 1544,719 1542,853 1510,973 1446,1081 1383,1188 1297,1274 1190,1337 1082,1400 961,1432 827,1434 693,1432 572,1400 464,1337 356,1274 270,1188 207,1081 143,973 111,853 109,719 Z M 567,719 C 567,772 579,819 603,862 626,904 657,938 696,963 735,989 779,1001 827,1002 875,1001 919,989 958,963 998,938 1030,904 1053,862 1077,819 1089,772 1090,719 1089,666 1077,618 1053,576 1030,534 998,500 958,476 919,451 875,438 827,438 779,438 735,451 696,476 657,500 626,534 603,576 579,618 567,666 567,719 Z"/>
   <glyph unicode=":" horiz-adv-x="186" d="M 178,103 C 179,73 189,49 208,30 227,11 251,1 281,0 310,1 334,11 353,30 372,49 382,73 383,103 382,132 372,156 353,175 334,194 310,204 281,205 251,204 227,194 208,175 189,156 179,132 178,103 Z M 178,963 C 179,933 189,909 208,890 227,871 251,861 281,860 310,861 334,871 353,890 372,909 382,933 383,963 382,992 372,1016 353,1035 334,1054 310,1064 281,1065 251,1064 227,1054 208,1035 189,1016 179,992 178,963 Z"/>
   <glyph unicode="5" horiz-adv-x="822" d="M 488,0 C 550,0 611,12 671,36 731,60 784,95 832,141 880,189 915,243 939,302 962,362 973,423 973,486 973,550 962,611 939,670 915,729 880,782 832,830 784,878 731,913 673,937 614,960 553,971 490,971 447,971 405,965 364,954 323,943 283,927 246,906 L 298,1332 922,1332 C 937,1332 949,1337 958,1346 968,1355 973,1368 973,1383 973,1398 968,1410 958,1419 949,1429 937,1434 922,1434 L 255,1434 C 248,1434 242,1433 237,1431 231,1429 226,1426 222,1422 216,1418 211,1413 207,1406 203,1400 201,1393 201,1385 L 132,808 C 132,805 131,803 131,802 130,800 130,798 130,797 130,794 130,791 130,788 130,785 131,783 132,781 132,780 132,779 132,778 132,777 133,776 134,775 L 134,773 C 135,770 136,767 138,764 140,761 143,758 146,756 156,746 168,741 181,741 195,741 207,746 218,756 256,794 298,822 345,841 391,860 440,869 490,869 540,869 588,860 635,841 681,823 723,795 760,758 797,721 825,679 843,632 862,585 871,536 871,486 871,436 862,388 843,342 825,295 796,253 758,215 720,177 678,149 632,130 585,111 538,102 488,102 439,102 391,111 344,130 298,148 256,176 218,213 207,223 195,228 181,228 167,228 155,223 144,213 134,203 129,191 129,178 129,164 134,152 144,141 192,94 245,59 305,35 364,12 425,0 488,0 Z"/>
   <glyph unicode="." horiz-adv-x="186" d="M 168,103 C 169,73 179,49 198,30 217,11 241,1 271,0 300,1 324,11 343,30 362,49 372,73 373,103 372,132 362,156 343,175 324,194 300,204 271,205 241,204 217,194 198,175 179,156 169,132 168,103 Z"/>
   <glyph unicode="," horiz-adv-x="160" d="M 111,-184 C 111,-194 114,-202 121,-207 127,-212 134,-215 141,-215 152,-215 167,-208 188,-196 208,-184 228,-168 248,-149 266,-132 280,-106 289,-72 298,-39 303,7 303,63 L 303,114 C 303,134 296,150 284,163 271,175 255,182 236,182 216,182 200,175 187,163 175,150 168,134 168,114 L 168,71 C 168,51 174,35 184,23 195,12 208,4 223,0 227,-35 220,-66 205,-90 190,-115 164,-138 127,-158 122,-161 118,-165 115,-169 112,-174 111,-179 111,-184 Z"/>
   <glyph unicode=")" horiz-adv-x="504" d="M 535,57 C 569,133 594,218 610,314 625,410 633,512 633,620 L 633,620 C 633,729 625,830 610,926 594,1022 569,1107 535,1184 L 535,1184 C 501,1260 454,1321 394,1368 334,1415 262,1439 178,1440 L 178,1440 C 162,1439 149,1434 139,1423 129,1412 123,1398 123,1383 L 123,1383 C 123,1367 129,1353 139,1342 149,1331 162,1326 178,1325 L 178,1325 C 236,1324 285,1308 326,1277 367,1245 402,1198 432,1135 L 432,1135 C 461,1071 482,996 497,908 511,819 518,724 518,620 L 518,620 C 518,517 511,422 497,333 482,245 461,170 432,106 L 432,106 C 402,43 367,-5 326,-37 285,-68 236,-84 178,-84 L 178,-84 C 162,-85 149,-90 139,-101 129,-112 123,-126 123,-142 L 123,-142 C 123,-158 129,-172 139,-182 149,-193 162,-199 178,-199 L 178,-199 C 179,-199 180,-199 180,-199 181,-199 181,-199 182,-199 L 182,-199 C 265,-198 337,-174 396,-127 455,-80 502,-19 535,57 Z"/>
   <glyph unicode="(" horiz-adv-x="503" d="M 243,57 L 243,57 C 276,-19 323,-80 382,-127 441,-174 513,-198 596,-199 L 596,-199 C 597,-199 597,-199 598,-199 598,-199 599,-199 600,-199 L 600,-199 C 616,-199 629,-193 639,-182 649,-172 655,-158 655,-142 L 655,-142 C 655,-126 649,-112 639,-101 629,-90 616,-85 600,-84 L 600,-84 C 542,-84 493,-68 452,-37 411,-5 376,43 346,106 L 346,106 C 317,170 296,245 281,333 267,422 260,517 260,620 L 260,620 C 260,724 267,819 281,908 296,996 317,1071 346,1135 L 346,1135 C 376,1198 411,1245 452,1277 493,1308 542,1324 600,1325 L 600,1325 C 616,1326 629,1331 639,1342 649,1353 655,1367 655,1383 L 655,1383 C 655,1398 649,1412 639,1423 629,1434 616,1439 600,1440 L 600,1440 C 516,1439 444,1415 384,1368 324,1321 277,1260 243,1184 L 243,1184 C 209,1107 184,1022 168,926 153,830 145,729 145,620 L 145,620 C 145,512 153,410 168,314 184,218 209,133 243,57 Z"/>
   <glyph unicode="$" horiz-adv-x="980" d="M 608,1512 L 608,1434 C 524,1431 450,1414 385,1381 321,1349 270,1305 234,1250 197,1195 179,1133 178,1063 177,962 211,880 280,819 349,758 459,711 612,678 L 612,94 C 533,102 460,122 395,153 330,185 269,227 213,280 210,284 205,287 199,290 193,293 185,295 176,295 162,294 150,289 140,279 130,269 125,257 125,244 125,234 127,227 131,220 135,213 140,207 147,201 215,141 287,95 362,62 437,29 519,9 608,2 L 608,-160 C 608,-174 613,-185 623,-194 632,-204 643,-209 657,-209 671,-209 682,-204 691,-194 701,-185 706,-174 706,-160 L 706,0 C 792,3 868,21 934,54 1000,86 1051,130 1088,186 1125,242 1144,306 1145,379 1146,479 1111,559 1041,621 970,683 857,730 702,762 L 702,1336 C 756,1330 809,1316 859,1295 910,1273 960,1242 1010,1203 1017,1197 1024,1193 1030,1191 1035,1189 1041,1188 1047,1188 1062,1189 1074,1194 1084,1203 1094,1213 1100,1225 1100,1240 1100,1250 1098,1258 1093,1265 1088,1273 1081,1280 1072,1287 1017,1328 961,1360 903,1385 845,1409 779,1424 706,1430 L 706,1512 C 706,1526 701,1537 691,1546 682,1556 671,1561 657,1561 643,1561 632,1556 623,1546 613,1537 608,1526 608,1512 L 608,1512 Z M 1041,371 C 1040,291 1009,226 949,174 888,123 806,96 702,92 L 702,658 C 790,638 859,615 909,588 958,562 993,530 1013,495 1032,459 1042,418 1041,371 Z M 282,1072 C 282,1121 296,1166 323,1206 351,1247 389,1279 438,1303 487,1327 545,1340 612,1342 L 612,783 C 525,804 457,828 409,855 361,882 327,913 309,949 290,984 281,1025 282,1072 Z"/>
   <glyph unicode=" " horiz-adv-x="609"/>
  </font>
</defs>
</svg>
